What Happened Last Night (2016)

Posted By: JohnSmith
What Happened Last Night (2016)

What Happened Last Night (2016)
HDRip | AVI / XviD@1600 kb/s | 720x384 | 1h 29mn | 1.24 GB | English: AC3, 384 kb/s (6 ch)
WEB-DL 720p | AVI / XviD@3795 kb/s | 1280x670 | 1h 29mn | 2.62 GB | English: AC3, 384 kb/s (6 ch)
WEB-DL 1080p | MKV / AVC@4970 kb/s | 1920x1004 | 1h 29mn | 3.41 GB
English: AC3, 384 kb/s (6 ch) | Subtitles: English
Genre: Comedy

Two college students, Danny and Sarah, are strangers until they wake up together after a night of partying. Told in reverse time order, the story follows what happened the night before.




General
Complete name : E:\What.Happened.Last.Night.2016.WEB-DL.XviD.AC3-FGT.avi
Format : AVI
Format/Info : Audio Video Interleave
File size : 1.24 GiB
Duration : 1 h 29 min
Overall bit rate : 1 991 kb/s
Movie name : What.Happened.Last.Night.2016.WEB-DL.XviD.AC3-FGT
Writing library : VirtualDub build 35491/release
Comment : What.Happened.Last.Night.2016.WEB-DL.XviD.AC3-FGT

Video
ID : 0
Format : MPEG-4 Visual
Format profile : Simple@L5
Format settings, BVOP : No
Format settings, QPel : No
Format settings, GMC : No warppoints
Format settings, Matrix : Default (H.263)
Codec ID : XVID
Codec ID/Hint : XviD
Duration : 1 h 29 min
Bit rate : 1 598 kb/s
Width : 720 pixels
Height : 384 pixels
Display aspect ratio : 1.912
Frame rate : 23.976 FPS
Color space : YUV
Chroma subsampling : 4:2:0
Bit depth : 8 bits
Scan type : Progressive
Compression mode : Lossy
Bits/(Pixel*Frame) : 0.241
Stream size : 1 022 MiB (80%)
Writing library : Lavc57.16.101

Audio
ID : 1
Format : AC-3
Format/Info : Audio Coding 3
Mode extension : CM (complete main)
Format settings, Endianness : Big
Codec ID : 2000
Duration : 1 h 29 min
Bit rate mode : Constant
Bit rate : 384 kb/s
Channel(s) : 6 channels
Channel positions : Front: L C R, Side: L R, LFE
Sampling rate : 48.0 kHz
Frame rate : 31.250 FPS (1536 spf)
Compression mode : Lossy
Stream size : 246 MiB (19%)
Alignment : Aligned on interleaves
Interleave, duration : 42 ms (1.00 video frame)
Interleave, preload duratio : 512 ms





General
Complete name : E:\What.Happened.Last.Night.2016.720p.WEB-DL.XviD.AC3-FGT.avi
Format : AVI
Format/Info : Audio Video Interleave
Format profile : OpenDML
File size : 2.62 GiB
Duration : 1 h 29 min
Overall bit rate : 4 190 kb/s
Movie name : What.Happened.Last.Night.2016.720p.WEB-DL.XviD.AC3-FGT
Writing library : VirtualDub build 35491/release
Comment : What.Happened.Last.Night.2016.720p.WEB-DL.XviD.AC3-FGT

Video
ID : 0
Format : MPEG-4 Visual
Format profile : Simple@L5
Format settings, BVOP : No
Format settings, QPel : No
Format settings, GMC : No warppoints
Format settings, Matrix : Default (H.263)
Codec ID : XVID
Codec ID/Hint : XviD
Duration : 1 h 29 min
Bit rate : 3 795 kb/s
Width : 1 280 pixels
Height : 670 pixels
Display aspect ratio : 1.910
Frame rate : 23.976 FPS
Color space : YUV
Chroma subsampling : 4:2:0
Bit depth : 8 bits
Scan type : Progressive
Compression mode : Lossy
Bits/(Pixel*Frame) : 0.185
Stream size : 2.37 GiB (91%)
Writing library : Lavc57.24.102

Audio
ID : 1
Format : AC-3
Format/Info : Audio Coding 3
Mode extension : CM (complete main)
Format settings, Endianness : Big
Codec ID : 2000
Duration : 1 h 29 min
Bit rate mode : Constant
Bit rate : 384 kb/s
Channel(s) : 6 channels
Channel positions : Front: L C R, Side: L R, LFE
Sampling rate : 48.0 kHz
Frame rate : 31.250 FPS (1536 spf)
Compression mode : Lossy
Stream size : 246 MiB (9%)
Alignment : Aligned on interleaves
Interleave, duration : 42 ms (1.00 video frame)
Interleave, preload duratio : 512 ms





General
Unique ID : 200741429032042463025228211548077133345 (0x97056496BEC704969C8F063346EB8E21)
Complete name : E:\What.Happened.Last.Night.2016.1080p.WEB-DL.DD5.1.H264-FGT.mkv
Format : Matroska
Format version : Version 4 / Version 2
File size : 3.41 GiB
Duration : 1 h 29 min
Overall bit rate : 5 462 kb/s
Movie name : What.Happened.Last.Night.2016.1080p.WEB-DL.DD5.1.H264-FGT
Encoded date : UTC 2017-02-07 06:43:56
Writing application : mkvmerge v9.6.0 ('Slave To Your Mind') 64bit
Writing library : libebml v1.3.4 + libmatroska v1.4.5
Cover : Yes
Attachments : small_cover.jpg / small_cover_land.jpg / cover.jpg / cover_land.jpg

Video
ID : 1
Format : AVC
Format/Info : Advanced Video Codec
Format profile : High@L4
Format settings, CABAC : Yes
Format settings, ReFrames : 4 frames
Codec ID : V_MPEG4/ISO/AVC
Duration : 1 h 29 min
Bit rate : 4 969 kb/s
Width : 1 920 pixels
Height : 1 004 pixels
Display aspect ratio : 1.912
Frame rate mode : Constant
Frame rate : 23.976 FPS
Color space : YUV
Chroma subsampling : 4:2:0
Bit depth : 8 bits
Scan type : Progressive
Bits/(Pixel*Frame) : 0.108
Stream size : 3.10 GiB (91%)
Title : What.Happened.Last.Night.2016.1080p.WEB-DL.DD5.1.H264-FGT
Language : English
Default : Yes
Forced : No
Color range : Limited
Color primaries : BT.709
Transfer characteristics : BT.709
Matrix coefficients : BT.709

Audio
ID : 2
Format : AC-3
Format/Info : Audio Coding 3
Mode extension : CM (complete main)
Format settings, Endianness : Big
Codec ID : A_AC3
Duration : 1 h 29 min
Bit rate mode : Constant
Bit rate : 384 kb/s
Channel(s) : 6 channels
Channel positions : Front: L C R, Side: L R, LFE
Sampling rate : 48.0 kHz
Frame rate : 31.250 FPS (1536 spf)
Compression mode : Lossy
Stream size : 246 MiB (7%)
Title : What.Happened.Last.Night.2016.1080p.WEB-DL.DD5.1.H264-FGT
Language : English
Default : Yes
Forced : No

Text
ID : 3
Format : UTF-8
Codec ID : S_TEXT/UTF8
Codec ID/Info : UTF-8 Plain Text
Language : English
Default : Yes
Forced : No

Menu
00:00:00.000 : en:1
00:03:43.348 : en:2
00:07:40.043 : en:3
00:10:32.382 : en:4
00:20:03.327 : en:5
00:28:27.831 : en:6
00:35:59.157 : en:7
00:40:51.699 : en:8
00:45:09.123 : en:9
00:50:12.384 : en:10
00:53:15.608 : en:11
00:58:17.701 : en:12
01:04:43.086 : en:13
01:09:42.552 : en:14
01:14:08.484 : en:15
01:21:35.389 : en:16




Screenshots HDRip

What Happened Last Night (2016)

What Happened Last Night (2016)

What Happened Last Night (2016)


Screenshots WEB-DL 720p

What Happened Last Night (2016)

What Happened Last Night (2016)

What Happened Last Night (2016)


Screenshots WEB-DL 1080p

What Happened Last Night (2016)

What Happened Last Night (2016)

What Happened Last Night (2016)