Tags
Language
Tags

White Snake II The Tribulation of the Green Snake / Bai She 2: Qing She jie qi (2021)

Posted By: Tutorial
1080p (FullHD) / WEBRip IMDb
White Snake II The Tribulation of the Green Snake / Bai She 2: Qing She jie qi (2021)

White Snake II The Tribulation of the Green Snake / Bai She 2: Qing She jie qi (2021)
1080p WEBRip | 1920 x 1080 | .MP4/AVC @ 2500 Kbps | 2 h 13 min | English AAC 224 Kbps, 2 ch | 2.54 GB
WEBRip | 720 x 302 | .MP4/AVC @ 1100 Kbps | 2 h 13 min | English AAC 256 Kbps, 2 ch | 1.27 GB
Subtitles: English, Dansk, Deutsch, Ελληνικά, Español, Suomi, Français, עברית, Bahasa Indonesia, Italiano, 日本語, 한국어, Nederlands, Polski, Português, Română, Русский, Svenska, ภาษาไทย, Türkçe, tiếng Việt, 中文
Genre: Animation, Action, Adventure, Fantasy

Animated adaptation of the classic Chinese folktale. Sequel to the 2019 film 'White Snake'.

General
Complete name : White.Snake.II.The.Tribulation.of.the.Green.Snake.2021.DUBBED.1080p.WEBRip.x264-RARBG.mp4
File size : 2.54 GiB

General
Complete name : White.Snake.II.The.Tribulation.of.the.Green.Snake.2021.DUBBED.WEBRip.x264-ION10.mp4
Format : MPEG-4
Format profile : Base Media
Codec ID : isom (isom/iso2/avc1/mp41)
File size : 1.27 GiB
Duration : 2 h 13 min
Overall bit rate : 1 361 kb/s
Movie name : RARBG - White.Snake.II.The.Tribulation.of.the.Green.Snake.2021.DUBBED.WEBRip.x264-ION10
Encoded date : UTC 2021-12-01 20:23:09
Tagged date : UTC 2021-12-01 20:23:09
Writing application : Lavf58.20.100
Comment : RARBG - White.Snake.II.The.Tribulation.of.the.Green.Snake.2021.DUBBED.WEBRip.x264-ION10

Video
ID : 1
Format : AVC
Format/Info : Advanced Video Codec
Format profile : High@L3.1
Format settings : CABAC / 5 Ref Frames
Format settings, CABAC : Yes
Format settings, RefFrames : 5 frames
Codec ID : avc1
Codec ID/Info : Advanced Video Coding
Duration : 2 h 13 min
Bit rate : 1 100 kb/s
Width : 720 pixels
Height : 302 pixels
Display aspect ratio : 2.40:1
Original display aspect ratio : 2.40:1
Frame rate mode : Constant
Frame rate : 24.000 FPS
Color space : YUV
Chroma subsampling : 4:2:0
Bit depth : 8 bits
Scan type : Progressive
Bits/(Pixel*Frame) : 0.211
Stream size : 1.02 GiB (81%)
Title : RARBG - White.Snake.II.The.Tribulation.of.the.Green.Snake.2021.DUBBED.WEBRip.x264-ION10
Writing library : x264 core 152 r2851M ba24899
Encoding settings : cabac=1 / ref=5 / deblock=1:-1:-1 / analyse=0x3:0x113 / me=umh / subme=9 / psy=1 / psy_rd=1.00:0.15 / mixed_ref=1 / me_range=16 / chroma_me=1 / trellis=2 / 8x8dct=1 / cqm=0 / deadzone=21,11 / fast_pskip=1 / chroma_qp_offset=-3 / threads=16 / lookahead_threads=1 / sliced_threads=0 / nr=0 / decimate=1 / interlaced=0 / bluray_compat=0 / constrained_intra=0 / bframes=3 / b_pyramid=2 / b_adapt=2 / b_bias=0 / direct=3 / weightb=1 / open_gop=0 / weightp=2 / keyint=250 / keyint_min=24 / scenecut=40 / intra_refresh=0 / rc_lookahead=50 / rc=2pass / mbtree=1 / bitrate=1100 / ratetol=1.0 / qcomp=0.60 / qpmin=0 / qpmax=69 / qpstep=4 / cplxblur=20.0 / qblur=0.5 / ip_ratio=1.40 / aq=1:1.00
Encoded date : UTC 2021-12-01 20:23:09
Tagged date : UTC 2021-12-01 20:23:09

Audio
ID : 2
Format : AAC
Format/Info : Advanced Audio Codec
Format profile : LC
Codec ID : mp4a-40-2
Duration : 2 h 13 min
Duration_LastFrame : -11 ms
Bit rate mode : Constant
Bit rate : 256 kb/s
Channel(s) : 2 channels
Channel positions : Front: L R
Sampling rate : 48.0 kHz
Frame rate : 46.875 FPS (1024 SPF)
Compression mode : Lossy
Stream size : 244 MiB (19%)
Title : RARBG - White.Snake.II.The.Tribulation.of.the.Green.Snake.2021.DUBBED.WEBRip.x264-ION10
Language : English
Default : Yes
Alternate group : 1
Encoded date : UTC 2021-12-01 20:23:09
Tagged date : UTC 2021-12-01 20:23:09
Screenshots 1080p WEBRip

White Snake II The Tribulation of the Green Snake / Bai She 2: Qing She 			  			 	   			 	  		  		  		  		  		  		  		  		   			 	   		 	    		 	    	 			   		   	  			  	  		  	   	 			   		  	   		 	 	  	 			   		   	  		   	  		  					 jie qi (2021)

White Snake II The Tribulation of the Green Snake / Bai She 2: Qing She jie qi (2021)

Screenshots WEBRip

White Snake II The Tribulation of the Green Snake / Bai She 2: Qing She jie qi (2021)

Welcome to my blog - daily update!