Please register here if you want to download anything!

If domain in your address bar is different from the list below
PLEASE LEAVE THAT SITE IMMEDIATELY
❗IT'S A DANGEROUS FAKE❗



Spicy Magazines for Men! ;-)

BBC - Yellowstone: Wildest Winter to Blazing Summer (2016)

Posted By: notbanned
BBC - Yellowstone: Wildest Winter to Blazing Summer (2016)

BBC - Yellowstone: Wildest Winter to Blazing Summer (2016)
HDTV | 1280x720 | .MP4/AVC @ 2244 Kbps | 3x~59min | 3.38 GiB
Audio: English AAC 160 kbps, 2 channels | Subs: None
Genre: Documentary

Kate Humble and Patrick Aryee experience wildlife dramas as they unfold at Yellowstone, one of the most remarkable places on the planet.

Part 1: Wildest Winter
Patrick follows the grizzly bears that are taking a risk with the weather by leaving their winter dens early. Hungry wolves are struggling to bring down their elk prey in the unusually shallow snow. And for great grey owls, it is the iciness of the snow that is hampering their hunts. Yellowstone's winter is always one of the most brutal on the planet. But 2016 saw weather records broken, and the wildlife was forced to adapt to survive. Kate Humble gets to grips with the science behind this remarkable season, from understanding the importance of the snowpack's structure as the melt begins to uncovering why Yellowstone's unique geology poses problems for some grazer's teeth.

Part 2: Toughest Spring
The story of animals surviving one of the harshest seasonal changes on the planet continues. As winter turns to spring, temperatures rise and Yellowstone bursts into life. Beavers feast on new green shoots, baby bison take their first faltering steps and grizzly bear cubs emerge from dens to explore this new green world. But spring is also a perilous time. Wolves are hungrier than usual after slim winter pickings. And rising temperatures melt the vast mountain snow pack, sending a million tons of water flooding into the rivers. Only the toughest will survive.

Part 3: Blazing Summer
The story of animals surviving one of the harshest seasonal changes on the planet continues.
It is summer and the Yellowstone beavers have a new challenge. Will the young survive as the river dries up and the colony is forced to move home? As food becomes scarce, wolves have a surprising strategy to keep their pups fed and grizzly bears are unexpected visitors on a cowboy ranch. By midsummer, the hot dry conditions create a new danger - deadly wildfires burn out of control and threaten to engulf a family of great grey owls. 2016 was the hottest year on earth since records began, and across Yellowstone scientists reveal the effects of rising temperatures on the animals that live here.


General
Complete name : Yellowstone.Wildest.Winter.to.Blazing.Summer.1of3..The.Wildest.Winter.720p.mp4
Format : MPEG-4
Format profile : Base Media
Codec ID : isom
File size : 1 018 MiB
Duration : 59mn 6s
Overall bit rate mode : Variable
Overall bit rate : 2 408 Kbps

Video
ID : 1
Format : AVC
Format/Info : Advanced Video Codec
Format profile : High@L4.1
Format settings, CABAC : Yes
Format settings, ReFrames : 4 frames
Codec ID : avc1
Codec ID/Info : Advanced Video Coding
Duration : 59mn 6s
Bit rate : 2 244 Kbps
Maximum bit rate : 10.5 Mbps
Width : 1 280 pixels
Height : 720 pixels
Display aspect ratio : 16:9
Frame rate mode : Constant
Frame rate : 25.000 fps
Color space : YUV
Chroma subsampling : 4:2:0
Bit depth : 8 bits
Scan type : Progressive
Bits/(Pixel*Frame) : 0.097
Stream size : 948 MiB (93%)
Writing library : x264 core 142 r2479 dd79a61
Encoding settings : cabac=1 / ref=1 / deblock=1:0:0 / analyse=0x3:0x3 / me=dia / subme=1 / psy=1 / psy_rd=1.00:0.00 / mixed_ref=0 / me_range=16 / chroma_me=1 / trellis=0 / 8x8dct=1 / cqm=0 / deadzone=21,11 / fast_pskip=1 / chroma_qp_offset=0 / threads=6 / lookahead_threads=1 / sliced_threads=0 / nr=0 / decimate=1 / interlaced=0 / bluray_compat=0 / constrained_intra=0 / bframes=3 / b_pyramid=2 / b_adapt=1 / b_bias=0 / direct=1 / weightb=1 / open_gop=0 / weightp=1 / keyint=250 / keyint_min=25 / scenecut=40 / intra_refresh=0 / rc_lookahead=0 / rc=crf / mbtree=0 / crf=22.0 / qcomp=0.60 / qpmin=0 / qpmax=69 / qpstep=4 / vbv_maxrate=62500 / vbv_bufsize=78125 / crf_max=0.0 / nal_hrd=none / filler=0 / ip_ratio=1.40 / pb_ratio=1.30 / aq=1:1.00
Encoded date : UTC 2017-01-03 23:57:40
Tagged date : UTC 2017-01-05 19:23:38
Color range : Limited
Color primaries : BT.709
Transfer characteristics : BT.709
Matrix coefficients : BT.709

Audio
ID : 2
Format : AAC
Format/Info : Advanced Audio Codec
Format profile : LC
Codec ID : 40
Duration : 59mn 6s
Bit rate mode : Variable
Bit rate : 160 Kbps
Maximum bit rate : 170 Kbps
Channel(s) : 2 channels
Channel positions : Front: L R
Sampling rate : 48.0 KHz
Compression mode : Lossy
Stream size : 67.8 MiB (7%)
Title :
Language : English
Encoded date : UTC 2017-01-05 19:23:32
Tagged date : UTC 2017-01-05 19:23:38

Text
ID : 3
Format : Timed Text
Codec ID : tx3g
Duration : 58mn 36s
Bit rate mode : Variable
Bit rate : 93 bps
Stream size : 40.0 KiB (0%)
Title :
Encoded date : UTC 2017-01-05 19:23:38
Tagged date : UTC 2017-01-05 19:23:38


Screenshots:

BBC - Yellowstone: Wildest Winter to Blazing Summer (2016)

BBC - Yellowstone: Wildest Winter to Blazing Summer (2016)

BBC - Yellowstone: Wildest Winter to Blazing Summer (2016)

BBC - Yellowstone: Wildest Winter to Blazing Summer (2016)