Tags
Language
Tags

Yor, the Hunter from the Future (1983)

Posted By: Tavaz
720p (HD) / BDRip IMDb
Yor, the Hunter from the Future (1983)

Yor, the Hunter from the Future (1983)
BDRip | MKV | 1280x720 | English | H264 @ 7664 kbps | FLAC @ 368 kbps | 1 h 28 min | 4.98 GiB
Subtitles: English
Genre: Fantasy, Science Fiction

In prehistoric times, the muscular Yor saves his cave-babe from a dinosaur just before they get zapped into the future to battle bad guys in the familiar desolate wasteland.

9ac2bf5cf7991fecb329de1968264c47.mkv (5.0 GB)



General
Unique ID : 290871178971572837592252024236771613292 (0xDAD3C058BD4EF6527847AC176FEF9A6C)
Complete name : ./9ac2bf5cf7991fecb329de1968264c47.mkv
Format : Matroska
Format version : Version 4 / Version 2
File size : 4.98 GiB
Duration : 1 h 28 min
Overall bit rate mode : Variable
Overall bit rate : 8 038 kb/s
Encoded date : UTC 2021-06-06 10:51:10
Writing application : mkvmerge v37.0.0 ('Leave It') 64-bit
Writing library : libebml v1.3.9 + libmatroska v1.5.2

Video
ID : 1
Format : AVC
Format/Info : Advanced Video Codec
Format profile : High@L4.1
Format settings : 8 Ref Frames
Format settings, CABAC : No
Format settings, RefFrames : 8 frames
Codec ID : V_MPEG4/ISO/AVC
Duration : 1 h 28 min
Bit rate : 7 665 kb/s
Width : 1 280 pixels
Height : 720 pixels
Display aspect ratio : 16:9
Frame rate mode : Constant
Frame rate : 23.976 (24000/1001) FPS
Color space : YUV
Chroma subsampling : 4:2:0
Bit depth : 8 bits
Scan type : Progressive
Bits/(Pixel*Frame) : 0.347
Stream size : 4.75 GiB (95%)
Writing library : x264 core 161 r3053 c347e7a
Encoding settings : cabac=0 / ref=8 / deblock=1:0:0 / analyse=0x3:0 / me=umh / subme=9 / psy=1 / psy_rd=1.00:0.00 / mixed_ref=0 / me_range=16 / chroma_me=1 / trellis=2 / 8x8dct=1 / cqm=0 / deadzone=21,11 / fast_pskip=0 / chroma_qp_offset=-2 / threads=22 / lookahead_threads=1 / sliced_threads=0 / nr=0 / decimate=0 / interlaced=0 / bluray_compat=0 / constrained_intra=0 / bframes=3 / b_pyramid=2 / b_adapt=2 / b_bias=0 / direct=3 / weightb=0 / open_gop=0 / weightp=2 / keyint=250 / keyint_min=23 / scenecut=40 / intra_refresh=0 / rc=crf / mbtree=0 / crf=19.5 / qcomp=0.60 / qpmin=0 / qpmax=69 / qpstep=4 / ip_ratio=1.40 / pb_ratio=1.30 / aq=1:1.00
Default : Yes
Forced : No
Color range : Limited
Color primaries : BT.709
Transfer characteristics : BT.709
Matrix coefficients : BT.709

Audio
ID : 2
Format : FLAC
Format/Info : Free Lossless Audio Codec
Codec ID : A_FLAC
Duration : 1 h 28 min
Bit rate mode : Variable
Bit rate : 368 kb/s
Channel(s) : 2 channels
Channel positions : Front: L R
Sampling rate : 48.0 kHz
Frame rate : 10.417 FPS (4608 SPF)
Bit depth : 16 bits
Stream size : 234 MiB (5%)
Writing library : Lavf58.43.100
Language : English
Default : Yes
Forced : No

Text
ID : 3
Format : PGS
Muxing mode : zlib
Codec ID : S_HDMV/PGS
Codec ID/Info : Picture based subtitle format used on BDs/HD-DVDs
Duration : 1 h 28 min
Bit rate : 16.1 kb/s
Count of elements : 1513
Stream size : 10.2 MiB (0%)
Language : English
Default : No
Forced : No

Menu
00:00:00.000 : en:Chapter 01
00:07:34.203 : en:Chapter 02
00:19:13.152 : en:Chapter 03
00:27:15.175 : en:Chapter 04
00:39:13.225 : en:Chapter 05
00:47:05.948 : en:Chapter 06
00:56:38.770 : en:Chapter 07
01:03:40.817 : en:Chapter 08
01:16:50.564 : en:Chapter 09
01:27:23.738 : en:Chapter 10





Yor, the Hunter from the Future (1983)


Yor, the Hunter from the Future (1983)


Yor, the Hunter from the Future (1983)


Yor, the Hunter from the Future (1983)


Yor, the Hunter from the Future (1983)