Your name. (2016)

Posted By: Tavaz
Your name. (2016)

Your name. (2016)
MKV | 1920x1080 | Italian / English / Japanese | H264 @ 4000 kbps | AAC @ 316 kbps | 1 h 46 min | 3.90 GiB
Subtitles: English, Italian
Genre: Animation, Drama, Fantasy

Mitsuha è una studentessa che vive in una piccola città rurale e desidera trasferirsi a Tokyo, nella grande metropoli dove ogni sogno si può realizzare. Taki è uno studente di liceo che vive proprio a Tokyo, ha un lavoro part-time in un ristorante italiano, ma vorrebbe lavorare nel campo dell’arte o dell’architettura. Una notte, Mitsuha sogna di essere un giovane uomo, si ritrova in una stanza che non conosce, ha nuovi amici e lo skyline di Tokyo si apre dinnanzi al suo sguardo. Nello stesso momento Taki sogna di essere una ragazzina che vive in una piccola città di montagna che non ha mai visitato. Ma quale sarà il segreto che si cela dietro questi strani sogni incrociati?

Your Name 1080p [aac ITA ENG JAP sub ITA ENG] by Salvo.mkv (3.9 GB)



General
Unique ID : 210673755277311073341702783003876013002 (0x9E7E4A14B5BCD205A49EE4FFF70A33CA)
Complete name : ./Your Name 1080p [aac ITA ENG JAP sub ITA ENG] by Salvo.mkv
Format : Matroska
Format version : Version 4 / Version 2
File size : 3.90 GiB
Duration : 1 h 46 min
Overall bit rate : 5 232 kb/s
Movie name : [Anime Land] Kimi no Na wa (BDRip 720p Hi10P QAAC)
Encoded date : UTC 2017-11-30 19:26:35
Writing application : mkvmerge v17.0.0 ('Be Ur Friend') 32-bit
Writing library : libebml v1.3.5 + libmatroska v1.4.8

Video
ID : 1
Format : AVC
Format/Info : Advanced Video Codec
Format profile : High@L4.1
Format settings : CABAC / 4 Ref Frames
Format settings, CABAC : Yes
Format settings, RefFrames : 4 frames
Codec ID : V_MPEG4/ISO/AVC
Duration : 1 h 46 min
Bit rate : 4 000 kb/s
Width : 1 920 pixels
Height : 1 080 pixels
Display aspect ratio : 16:9
Frame rate mode : Constant
Frame rate : 23.976 (24000/1001) FPS
Color space : YUV
Chroma subsampling : 4:2:0
Bit depth : 8 bits
Scan type : Progressive
Bits/(Pixel*Frame) : 0.080
Stream size : 2.98 GiB (77%)
Writing library : x264 core 152 r2851 ba24899
Encoding settings : cabac=1 / ref=4 / deblock=1:1:1 / analyse=0x3:0x133 / me=umh / subme=9 / psy=1 / psy_rd=0.40:0.00 / mixed_ref=1 / me_range=16 / chroma_me=1 / trellis=2 / 8x8dct=1 / cqm=0 / deadzone=21,11 / fast_pskip=1 / chroma_qp_offset=-2 / threads=1 / lookahead_threads=1 / sliced_threads=0 / nr=0 / decimate=1 / interlaced=0 / bluray_compat=0 / constrained_intra=0 / bframes=3 / b_pyramid=2 / b_adapt=2 / b_bias=0 / direct=3 / weightb=1 / open_gop=0 / weightp=2 / keyint=240 / keyint_min=23 / scenecut=40 / intra_refresh=0 / rc_lookahead=60 / rc=2pass / mbtree=1 / bitrate=4000 / ratetol=1.0 / qcomp=0.60 / qpmin=0 / qpmax=69 / qpstep=4 / cplxblur=20.0 / qblur=0.5 / vbv_maxrate=62500 / vbv_bufsize=78125 / nal_hrd=none / filler=0 / ip_ratio=1.40 / aq=1:0.60
Default : Yes
Forced : No

Audio #1
ID : 2
Format : AAC
Format/Info : Advanced Audio Codec
Format profile : LC
Codec ID : A_AAC-2
Duration : 1 h 46 min
Bit rate : 317 kb/s
Channel(s) : 6 channels
Channel positions : Front: L C R, Side: L R, LFE
Sampling rate : 48.0 kHz
Frame rate : 46.875 FPS (1024 SPF)
Compression mode : Lossy
Delay relative to video : 1 ms
Stream size : 241 MiB (6%)
Title : aac 6ch
Language : Italian
Default : Yes
Forced : No

Audio #2
ID : 3
Format : AAC
Format/Info : Advanced Audio Codec
Format profile : LC
Codec ID : A_AAC-2
Duration : 1 h 46 min
Bit rate : 128 kb/s
Channel(s) : 2 channels
Channel positions : Front: L R
Sampling rate : 44.1 kHz
Frame rate : 43.066 FPS (1024 SPF)
Compression mode : Lossy
Delay relative to video : 800 ms
Stream size : 97.5 MiB (2%)
Title : aac 2ch
Language : English
Default : No
Forced : No

Audio #3
ID : 4
Format : AAC
Format/Info : Advanced Audio Codec
Format profile : LC
Codec ID : A_AAC-2
Duration : 1 h 46 min
Bit rate : 768 kb/s
Channel(s) : 6 channels
Channel positions : Front: L C R, Side: L R, LFE
Sampling rate : 48.0 kHz
Frame rate : 46.875 FPS (1024 SPF)
Compression mode : Lossy
Delay relative to video : 20 ms
Stream size : 586 MiB (15%)
Title : aac 6ch
Language : Japanese
Default : No
Forced : No

Text #1
ID : 5
Format : VobSub
Muxing mode : zlib
Codec ID : S_VOBSUB
Codec ID/Info : Picture based subtitle format used on DVDs
Duration : 1 h 39 min
Bit rate : 853 b/s
Count of elements : 180
Stream size : 621 KiB (0%)
Title : Signs & Songs
Language : Italian
Default : Yes
Forced : No

Text #2
ID : 6
Format : PGS
Muxing mode : zlib
Codec ID : S_HDMV/PGS
Codec ID/Info : Picture based subtitle format used on BDs/HD-DVDs
Duration : 1 h 45 min
Bit rate : 30.7 kb/s
Count of elements : 2456
Stream size : 23.2 MiB (1%)
Title : Full Subtitles
Language : English
Default : No
Forced : No

Text #3
ID : 7
Format : VobSub
Muxing mode : zlib
Codec ID : S_VOBSUB
Codec ID/Info : Picture based subtitle format used on DVDs
Duration : 1 h 39 min
Bit rate : 3 767 b/s
Count of elements : 1136
Stream size : 2.69 MiB (0%)
Title : Full Subtitles
Language : Italian
Default : No
Forced : No

Menu
00:00:00.000 : ja:1
00:01:34.094 : ja:2
00:03:21.868 : ja:3
00:05:13.271 : ja:4
00:08:37.308 : ja:5
00:12:11.314 : ja:6
00:14:32.371 : ja:7
00:17:22.500 : ja:8
00:22:57.918 : ja:9
00:27:05.624 : ja:10
00:28:16.570 : ja:11
00:29:53.542 : ja:12
00:32:42.836 : ja:13
00:37:26.995 : ja:14
00:41:57.765 : ja:15
00:44:30.334 : ja:16
00:45:54.001 : ja:17
00:48:28.656 : ja:18
00:53:01.387 : ja:19
00:56:53.869 : ja:20
01:03:42.318 : ja:21
01:06:03.793 : ja:22
01:09:44.931 : ja:23
01:12:41.816 : ja:24
01:16:42.473 : ja:25
01:21:21.710 : ja:26
01:29:12.806 : ja:27
01:32:51.858 : ja:28
01:37:01.733 : ja:29
01:41:19.615 : ja:30





Your name. (2016)


Your name. (2016)


Your name. (2016)


Your name. (2016)


Your name. (2016)