(Fr5) Les années 2 (2013)

Posted By: Morocco
(Fr5) Les années 2 (2013)

(Fr5) Les années 2 (2013)
TNT-Rip by Clo2 | French | 1h25min | 640 x 368 | 25.000 fps | MP4 | AVC High@L3.0 @ 800 Kbps | MPEG Audio @ 116 Kbps | 553 MB
Genre : Documentaire

Voyage à travers six décennies d'Histoire et d'actualités, de 1952 à 2012. 1952 connaît l'inflation, 1962 les accords d'Evian et le paquebot France, symbole de luxe et de progrès. Alors qu'arrive 1972, l'hexagone est frappé par le chômage, tout en poursuivant sa conquête de l'informatique. La semaine des 39 heures et la naissance du magnétoscope marquent l'année 1982, quand 1992 est témoin de la signature du traité de Maastricht et de la progression des lois écologistes. En 2002, l'euro devient monnaie unique et le smartphone révolutionne les modes de communication. Quant à 2012, elle propulse François Hollande à la présidence de la République.

Format : MPEG-4
Format profile : Base Media / Version 2
Codec ID : mp42
File size : 553 MiB
Duration : 1h 25mn
Overall bit rate mode : Variable
Overall bit rate : 903 Kbps
Encoded date : UTC 2013-01-03 06:21:09
Tagged date : UTC 2013-01-03 06:51:00
Writing application : HandBrake 0.9.8 2012071700

Video
ID : 1
Format : AVC
Format/Info : Advanced Video Codec
Format profile : High@L3.0
Format settings, CABAC : Yes
Format settings, ReFrames : 4 frames
Codec ID : avc1
Codec ID/Info : Advanced Video Coding
Duration : 1h 25mn
Bit rate mode : Variable
Bit rate : 800 Kbps
Width : 640 pixels
Height : 368 pixels
Display aspect ratio : 1.739
Frame rate mode : Constant
Frame rate : 25.000 fps
Color space : YUV
Chroma subsampling : 4:2:0
Bit depth : 8 bits
Scan type : Progressive
Bits/(Pixel*Frame) : 0.136
Stream size : 490 MiB (89%)
Writing library : x264 core 120
Encoding settings : cabac=1 / ref=3 / deblock=1:0:0 / analyse=0x3:0x113 / me=hex / subme=7 / psy=1 / psy_rd=1.00:0.00 / mixed_ref=1 / me_range=16 / chroma_me=1 / trellis=1 / 8x8dct=1 / cqm=0 / deadzone=21,11 / fast_pskip=1 / chroma_qp_offset=-2 / threads=12 / sliced_threads=0 / nr=0 / decimate=1 / interlaced=0 / bluray_compat=0 / constrained_intra=0 / bframes=3 / b_pyramid=2 / b_adapt=2 / b_bias=0 / direct=1 / weightb=1 / open_gop=0 / weightp=2 / keyint=250 / keyint_min=25 / scenecut=40 / intra_refresh=0 / rc_lookahead=50 / rc=2pass / mbtree=1 / bitrate=800 / ratetol=1.0 / qcomp=0.60 / qpmin=3 / qpmax=69 / qpstep=4 / cplxblur=20.0 / qblur=0.5 / ip_ratio=1.40 / aq=1:1.00
Encoded date : UTC 2013-01-03 06:21:09
Tagged date : UTC 2013-01-03 06:51:00
Color primaries : BT.601-6 525, BT.1358 525, BT.1700 NTSC, SMPTE 170M
Transfer characteristics : BT.709-5, BT.1361
Matrix coefficients : BT.601-6 525, BT.1358 525, BT.1700 NTSC, SMPTE 170M

Audio
ID : 2
Format : MPEG Audio
Format version : Version 1
Format profile : Layer 3
Mode : Joint stereo
Mode extension : MS Stereo
Codec ID : 69
Duration : 1h 25mn
Bit rate mode : Variable
Bit rate : 98.4 Kbps
Maximum bit rate : 116 Kbps
Channel(s) : 2 channels
Sampling rate : 48.0 KHz
Compression mode : Lossy
Delay relative to video : -80ms
Stream size : 60.2 MiB (11%)
Language : French
Encoded date : UTC 2013-01-03 06:21:09
Tagged date : UTC 2013-01-03 06:50:59


(Fr5) Les années 2 (2013)

(Fr5) Les années 2 (2013)

(Fr5) Les années 2 (2013)

(Fr5) Les années 2 (2013)

(Fr5) Les années 2 (2013)

(Fr5) Les années 2 (2013)

No Pass ;)

Un merci ?