Big Dreams Small Spaces: Series 2 (2016)

Posted By: Tutorial
Big Dreams Small Spaces: Series 2 (2016)

Big Dreams Small Spaces: Series 2 (2016)
HDTV | 1280 x 720 | .MP4/AVC @ 3000 Kbps | 6x~59min | English AAC 60 kbps, 2 channels | 7.82 GB
Genre: Documentary, Family

Monty Don returns to help more amateur horticulturists transform their small or average-sized plots into something extraordinary.
Part 1: Salisbury
In Salisbury, newly engaged couple Glenn and Zoe want a new garden to produce flowers for their wedding, but their sloping plot seems completely unusable. Monty has the ideas and plenty of enthusiasm, but can they get the planting done in time for the wedding? In Barnet, he gets to work on an overgrown allotment that owner Nighat wants to use as a site for keeping bees, as well for growing fruit and vegetables.

Part 2: Clapham
Monty Don helps young couple Jack and Chris in Clapham to turn their tiny urban back space into a Victorian-inspired plant collector's paradise - with a twist. However, their timing is not perfect, as they are aiming to add a special dahlia collection, a fern wall and lots of modern gardening gadgets at the same time as refurbishing their home. Meanwhile, in Hereford, daughter Frankie is trying to renovate her cottage garden in memory of her sister, with the help of her mother Pat, but her ambitious plans clash with Monty's more practical approach.

Part 3: Bromley
Monty helps Bromley couple Mei and Gerard with their ambitious plan to turn their narrow, split-level garden into a Japanese-style paradise, complete with mountain stream, mossy boulders and traditional plants. But with tons of soil to move and their budget running out, it seems they have bitten off more than they can chew. In Stoke, artists Anna and Andrew want to transform their concrete yard into a haven of tranquillity with something beautiful to see in every corner. However, they will need to use all their creative flair - not to mention Monty's expert advice - to avoid overcrowding this very small space.

Part 4: Oxford
Monty helps Oxford neighbours Anne and Fliss, who want to combine the front gardens of their semi-detached homes into one single space filled with their favourite grasses and perennials. The gardening enthusiasts have some big ideas - but can they work together to achieve one goal? He also travels to Pewsey, where former Army officer Sally is converting a tarmac and rubble-covered area into a cosy, wildlife-friendly haven for her daughters. She wants it ready for summer, which doesn\'t give them a great deal of time - but she does have an army of friends willing to get involved.

Part 5:Worthing
Worthing couple Emma and Josh want to transform their overgrown plot into a family garden for their son Noah, who has Down's syndrome. Monty Don helps them learn about different sensory plants - only for rain to jeopardise the project. In Hitchin, Aletheia is determined to create a neighbourhood vegetable patch and a trip to Cranbrook Community Garden in London proves it is possible - but can she persuade the other locals to join in?

Part 6: Teddington
Teddington woman Jennifer enlists her sisters' help to create an Italian-themed garden in memory of their parents. However, growing citrus trees, olive trees and vines in a leafy London suburb is easier said than done. In Billericay, Karensa dreams of turning a messy strip of back garden into an Alice in Wonderland playground for her daughter, complete with chessboard patio, heart-shaped lawn and teapot water feature. The only problem is, she has little idea how to go about it. Can Monty bring her closer to her fantasy?

General
Complete name : Big.Dreams.Small.Spaces.Series.2.mp4
Format : MPEG-4
Format profile : Base Media
Codec ID : isom
File size : 1.30 GiB
Duration : 58mn 59s
Overall bit rate mode : Variable
Overall bit rate : 3 164 Kbps
Encoded date : UTC 2016-04-08 19:36:41
Tagged date : UTC 2016-04-08 19:36:41
Writing application : My MP4Box GUI 0.6.0.6

Video
ID : 1
Format : AVC
Format/Info : Advanced Video Codec
Format profile : High@L4.1
Format settings, CABAC : Yes
Format settings, ReFrames : 4 frames
Codec ID : avc1
Codec ID/Info : Advanced Video Coding
Duration : 58mn 59s
Bit rate : 3 000 Kbps
Maximum bit rate : 10.9 Mbps
Width : 1 280 pixels
Height : 720 pixels
Display aspect ratio : 16:9
Frame rate mode : Constant
Frame rate : 25.000 fps
Color space : YUV
Chroma subsampling : 4:2:0
Bit depth : 8 bits
Scan type : Progressive
Bits/(Pixel*Frame) : 0.130
Stream size : 1.24 GiB (95%)
Title : Big.Dreams.Small.Spaces.Series.2.1of6.Salisbury.720p.HDTV.x264.AAC.MVGroup.org.mp4
Writing library : x264 core 142 r2479 dd79a61
Encoding settings : cabac=1 / ref=1 / deblock=1:0:0 / analyse=0x3:0x3 / me=dia / subme=1 / psy=1 / psy_rd=1.00:0.00 / mixed_ref=0 / me_range=16 / chroma_me=1 / trellis=0 / 8x8dct=1 / cqm=0 / deadzone=21,11 / fast_pskip=1 / chroma_qp_offset=0 / threads=3 / lookahead_threads=1 / sliced_threads=0 / nr=0 / decimate=1 / interlaced=0 / bluray_compat=0 / constrained_intra=0 / bframes=3 / b_pyramid=2 / b_adapt=1 / b_bias=0 / direct=1 / weightb=1 / open_gop=0 / weightp=1 / keyint=250 / keyint_min=25 / scenecut=40 / intra_refresh=0 / rc_lookahead=0 / rc=abr / mbtree=0 / bitrate=3000 / ratetol=1.0 / qcomp=0.60 / qpmin=0 / qpmax=69 / qpstep=4 / vbv_maxrate=62500 / vbv_bufsize=78125 / nal_hrd=none / filler=0 / ip_ratio=1.40 / pb_ratio=1.30 / aq=1:1.00
Encoded date : UTC 2016-04-01 17:59:06
Tagged date : UTC 2016-04-08 19:37:53
Color primaries : BT.709-5, BT.1361, IEC 61966-2-4, SMPTE RP177
Transfer characteristics : BT.709-5, BT.1361
Matrix coefficients : BT.709-5, BT.1361, IEC 61966-2-4 709, SMPTE RP177

Audio
ID : 2
Format : AAC
Format/Info : Advanced Audio Codec
Format profile : LC
Codec ID : 40
Duration : 58mn 59s
Bit rate mode : Variable
Bit rate : 160 Kbps
Maximum bit rate : 195 Kbps
Channel(s) : 2 channels
Channel positions : Front: L R
Sampling rate : 48.0 KHz
Compression mode : Lossy
Stream size : 67.7 MiB (5%)
Title : Big.Dreams.Small.Spaces.Series.2.1of6.Salisbury.720p.HDTV.x264.AAC.MVGroup.org.mp4
Language : English
Encoded date : UTC 2016-04-08 19:37:32
Tagged date : UTC 2016-04-08 19:37:53

Text
ID : 3
Format : Timed text
Codec ID : tx3g
Duration : 58mn 29s
Bit rate mode : Variable
Bit rate : 118 bps
Stream size : 50.4 KiB (0%)
Title : Big.Dreams.Small.Spaces.Series.2.1of6.Salisbury.720p.HDTV.x264.AAC.MVGroup.org.srt
Encoded date : UTC 2016-04-08 19:37:53
Tagged date : UTC 2016-04-08 19:37:53
Screenshots

Big Dreams Small Spaces: Series 2 (2016)

Big Dreams Small Spaces: Series 2 (2016)

Big Dreams Small Spaces: Series 2 (2016)

Big Dreams Small Spaces: Series 2 (2016)

Big Dreams Small Spaces: Series 2 (2016)


Big Dreams Small Spaces: Series 2 (2016)