(Fr5) La cité oubliée d’Égypte (2011)

Posted By: Morocco
(Fr5) La cité oubliée d’Égypte (2011)

(Fr5) La cité oubliée d’Égypte (2011)
TNT-Rip by Clo2 | French | 50min | 640 x 368 | 25.000 fps | Avi | MPEG-4 XviD @ 895 Kbps | MP3 @ 112 Kbps | 363 MB
Genre : Documentaire

En Syrie, le site archéologique de Quatna, découvert il y a près de vingt ans, provient d'une civilisation très peu connue. Ce mystérieux royaume se trouvait à la frontière nord de l'empire égyptien. Il disparu il y a 3500 ans.

Très peu de texte en parlent. En 2009, une équipe d'archéologues a mis à jour une chambre funéraire donnant de précieuses indications.

Les fouilles sur l'ensemble du site permettent d'avoir une idée de l'ampleur du royaume. La disparition de cette civilisation semble être due aux hittites, qui détenaient une armée puissante et redoutée.

Des traces laissent penser que le royaume a ensuite été totalement brûlé.

Format : AVI
Format/Info : Audio Video Interleave
File size : 363 MiB
Duration : 49mn 57s
Overall bit rate : 1 017 Kbps
Writing application : VirtualDubMod 1.5.10.3 Fr | www.virtualdub-fr.org || (build 2550/release)
Writing library : VirtualDubMod build 2550/release

Video
ID : 0
Format : MPEG-4 Visual
Format profile : Advanced Simple@L5
Format settings, BVOP : 2
Format settings, QPel : No
Format settings, GMC : No warppoints
Format settings, Matrix : Default (H.263)
Muxing mode : Packed bitstream
Codec ID : XVID
Codec ID/Hint : XviD
Duration : 49mn 57s
Bit rate : 895 Kbps
Width : 640 pixels
Height : 368 pixels
Display aspect ratio : 16:9
Frame rate : 25.000 fps
Color space : YUV
Chroma subsampling : 4:2:0
Bit depth : 8 bits
Scan type : Progressive
Compression mode : Lossy
Bits/(Pixel*Frame) : 0.152
Stream size : 320 MiB (88%)
Writing library : XviD 57

Audio
ID : 1
Format : MPEG Audio
Format version : Version 1
Format profile : Layer 3
Mode : Joint stereo
Mode extension : MS Stereo
Codec ID : 55
Codec ID/Hint : MP3
Duration : 49mn 57s
Bit rate mode : Constant
Bit rate : 112 Kbps
Channel(s) : 2 channels
Sampling rate : 48.0 KHz
Compression mode : Lossy
Stream size : 40.0 MiB (11%)
Alignment : Aligned on interleaves
Interleave, duration : 40 ms (1.00 video frame)
Interleave, preload duration : 504 ms
Writing library : LAME3.98r
Encoding settings : -m j -V 4 -q 3 -lowpass 15.6 -b 112


(Fr5) La cité oubliée d’Égypte (2011)

(Fr5) La cité oubliée d’Égypte (2011)

(Fr5) La cité oubliée d’Égypte (2011)

No Pass ;)

Un merci ?

D'autres documentaires ? >> Listing des documentaires