Flight from Ashiya (1964)

Posted By: a_l_chemist
Flight from Ashiya (1964)

Flight from Ashiya (1964)
DVDRip | AVI | DivX | 592x256, 864 kbps | English: AC3, 2ch, 192 kbps | 01:38:16 | 777 MB
Genre: Adventure | Romance | Drama

Flight from Ashiya is a 1964 film directed by Michael Anderson and starring Yul Brynner, Richard Widmark and George Chakiris about the U.S. Air Force's Air Rescue Service, flying out of Ashiya Air Base, Japan. In this fictionalized film set in the early 1960s, a flight crew's mission is to rescue a liferaft of Japanese civilians stranded in rough seas.

Flight from Ashiya (1964)

Plot: The movie centers on three flight crew members of a USAF Air Rescue Service HU-16 Albatross and various experiences in their collective pasts, told in flashback. Some have considered the flashbacks as tedious and boring, but the aircraft sequences are generally considered quite good, especially for fans of the Grumman Albatross. Richard Widmark plays Colonel Stevenson (the pilot in command); Yul Brynner portrays Master Sergeant Mike Takashima (the Pararescue specialist) and George Chakiris portrays the co-pilot, Lieutenant Gregg.
–from wikipedia
…..IMDb | Rovi
Flight from Ashiya (1964)

Flight from Ashiya (1964)

Flight from Ashiya (1964)

Flight from Ashiya (1964)

Flight from Ashiya (1964)

General
Complete name : F:\Movies\Flight from Ashiya\Flight from Ashiya.avi
Format : AVI
Format/Info : Audio Video Interleave
File size : 747 MiB
Duration : 1h 38mn
Overall bit rate : 1 062 Kbps
Writing application : VirtualDubMod 1.5.4.1 (build 2178/release)
Writing library : VirtualDubMod build 2178/release

Video
ID : 0
Format : MPEG-4 Visual
Format settings, BVOP : 1
Format settings, QPel : No
Format settings, GMC : No warppoints
Format settings, Matrix : Default (H.263)
Muxing mode : Packed bitstream
Codec ID : DX50
Codec ID/Hint : DivX 5
Duration : 1h 38mn
Bit rate : 864 Kbps
Width : 592 pixels
Height : 256 pixels
Display aspect ratio : 2.35:1
Frame rate : 25.000 fps
Color space : YUV
Chroma subsampling : 4:2:0
Bit depth : 8 bits
Scan type : Progressive
Compression mode : Lossy
Bits/(Pixel*Frame) : 0.228
Stream size : 607 MiB (81%)
Writing library : DivX 6.7.0 (UTC 2007-09-20)

Audio
ID : 1
Format : AC-3
Format/Info : Audio Coding 3
Mode extension : CM (complete main)
Codec ID : 2000
Duration : 1h 38mn
Bit rate mode : Constant
Bit rate : 192 Kbps
Channel(s) : 2 channels
Channel positions : Front: L R
Sampling rate : 48.0 KHz
Bit depth : 16 bits
Compression mode : Lossy
Stream size : 135 MiB (18%)
Alignment : Split accross interleaves
Interleave, duration : 96 ms (2.40 video frames)
Interleave, preload duration : 96 ms
Language : English

Download:

Fileserve
List of links

Filesonic
List of links

Wupload
List of links

Interchangeable links

My blog on AvaxHome

.: No Mirrors Please :.