Channel 4 - Grand Designs: House of the Year Series 2 (2016)

Posted By: Tutorial
Channel 4 - Grand Designs: House of the Year Series 2 (2016)

Channel 4 - Grand Designs: House of the Year Series 2 (2016)
HDTV | 1280 x 720 | .MP4/AVC @ 2553 Kbps | 4x~47mn | English AAC 160 Kbps, 2 channels | 3.33 GB
Genre: Documentary

Kevin McCloud is joined by architects Damion Burrows and Zac Monro to explore some of Britain's most cutting-edge homes, all of which are in the running for the RIBA House of the Year Award, 2016.
Part 1: Country Homes
Kevin profiles five country homes on the longlist for building of the year, including a house camouflaged within a hill and a slice of spectacular California modernism in Cornwall, Kevin then reveals which will make it onto the shortlist.

Part 2: Boundary Pushers

Kevin profiles five nominated homes that push the limits of residential design, including a hidden house built of glass and concrete and an experimental London extension,

Part 3: Space Makers
Kevin explores five homes that create space out of the smallest sites, including a dark mews and some high architecture in Dungeness

Part 4: The Winner
Kevin visits four extraordinary houses built on tricky sites before revealing the overall winner of the Royal Institute of British Architects House of the Year 2016

Related Documentaries:
Channel 4 - Grand Designs: Series 17 (2016)
Channel 4 - George Clarkes Amazing Spaces : Series 7 (2016)
TV3 - Grand Designs New Zealand: Series 2 (2016)
Windfall Films - My Floating Home: Series 1 (2016)
Channel 5 - Building the Panama Canal (2012)
Discovery Channel - Machines: How they Work Series 1 (2016)
National Geographic - Indestructible Megastructures Series 1 (2013)

General
Complete name : Grand.Designs.House.Of.The.Year.Series.2.1of4.Country.Homes.mp4
Format : MPEG-4
Format profile : Base Media / Version 2
Codec ID : mp42
File size : 919 MiB
Duration : 47mn 14s
Overall bit rate mode : Variable
Overall bit rate : 2 719 Kbps
Encoded date : UTC 2016-12-16 01:54:45
Tagged date : UTC 2016-12-16 01:54:45
Writing application : HandBrake 0.10.5 2016021100

Video
ID : 1
Format : AVC
Format/Info : Advanced Video Codec
Format profile : High@L4.1
Format settings, CABAC : Yes
Format settings, ReFrames : 4 frames
Codec ID : avc1
Codec ID/Info : Advanced Video Coding
Duration : 47mn 14s
Bit rate : 2 553 Kbps
Width : 1 280 pixels
Height : 720 pixels
Display aspect ratio : 16:9
Frame rate mode : Constant
Frame rate : 25.000 fps
Color space : YUV
Chroma subsampling : 4:2:0
Bit depth : 8 bits
Scan type : Progressive
Bits/(Pixel*Frame) : 0.111
Stream size : 862 MiB (94%)
Writing library : x264 core 142 r2479 dd79a61
Encoding settings : cabac=1 / ref=1 / deblock=1:0:0 / analyse=0x3:0x3 / me=dia / subme=1 / psy=1 / psy_rd=1.00:0.00 / mixed_ref=0 / me_range=16 / chroma_me=1 / trellis=0 / 8x8dct=1 / cqm=0 / deadzone=21,11 / fast_pskip=1 / chroma_qp_offset=0 / threads=6 / lookahead_threads=1 / sliced_threads=0 / nr=0 / decimate=1 / interlaced=0 / bluray_compat=0 / constrained_intra=0 / bframes=3 / b_pyramid=2 / b_adapt=1 / b_bias=0 / direct=1 / weightb=1 / open_gop=0 / weightp=1 / keyint=250 / keyint_min=25 / scenecut=40 / intra_refresh=0 / rc_lookahead=0 / rc=crf / mbtree=0 / crf=22.0 / qcomp=0.60 / qpmin=0 / qpmax=69 / qpstep=4 / vbv_maxrate=62500 / vbv_bufsize=78125 / crf_max=0.0 / nal_hrd=none / filler=0 / ip_ratio=1.40 / pb_ratio=1.30 / aq=1:1.00
Encoded date : UTC 2016-12-16 01:54:45
Tagged date : UTC 2016-12-16 01:54:45
Color primaries : BT.709-5, BT.1361, IEC 61966-2-4, SMPTE RP177
Transfer characteristics : BT.709-5, BT.1361
Matrix coefficients : BT.709-5, BT.1361, IEC 61966-2-4 709, SMPTE RP177

Audio
ID : 2
Format : AAC
Format/Info : Advanced Audio Codec
Format profile : LC
Codec ID : 40
Duration : 47mn 14s
Bit rate mode : Variable
Bit rate : 160 Kbps
Channel(s) : 2 channels
Channel positions : Front: L R
Sampling rate : 48.0 KHz
Compression mode : Lossy
Stream size : 54.2 MiB (6%)
Title : Stereo
Language : English
Encoded date : UTC 2016-12-16 01:54:45
Tagged date : UTC 2016-12-16 01:54:45
Screenshots

Channel 4 - Grand Designs: House of the Year Series 2 (2016)

Channel 4 - Grand Designs: House of the Year Series 2 (2016)

Channel 4 - Grand Designs: House of the Year Series 2 (2016)

Channel 4 - Grand Designs: House of the Year Series 2 (2016)

Channel 4 - Grand Designs: House of the Year Series 2 (2016)

Welcome to my blog - daily update!

Channel 4 - Grand Designs: House of the Year Series 2 (2016)