Tags
Language
Tags

If Cats Disappeared from the World (2016)

Posted By: wcruiser
If Cats Disappeared from the World (2016)

If Cats Disappeared from the World (2016)
720p BDRip | MKV | 1280x536 | x264 @ 4944 Kbps | Japanese AC3 (6 ch) @ 640 Kbps | 1h 42mn | 4 GB
1080p BDRip | MKV | 1920x804 | x264 @ 11.1 Mbps | Japanese DTS (6 ch) @ 1509 Kbps | 1h 42mn | 9 GB
Sub: Chinese
Genre: Fantasy

Following the death of his mother a thirty-year old man decides to leave his father’s house and live independently. Soon he has a cat as well. When he soon receives surprising news he is offered a Faustian bargain that could change everything for everyone.


IMDB
Video
ID : 1
Format : AVC
Format/Info : Advanced Video Codec
Format profile : High@L4.1
Format settings, CABAC : Yes
Format settings, ReFrames : 12 frames
Codec ID : V_MPEG4/ISO/AVC
Duration : 1h 42mn
Bit rate : 4 944 Kbps
Width : 1 280 pixels
Height : 536 pixels
Display aspect ratio : 2.40:1
Frame rate mode : Constant
Frame rate : 23.976 (24000/1001) fps
Color space : YUV
Chroma subsampling : 4:2:0
Bit depth : 8 bits
Scan type : Progressive
Bits/(Pixel*Frame) : 0.301
Stream size : 3.53 GiB (88%)
Writing library : x264 core 129 r2245+704+36 8e61944 tMod+MixAQ [8-bit@4:2:0 X86_64]
Encoding settings : cabac=1 / ref=12 / deblock=1:-3:-3 / analyse=0x3:0x133 / me=umh / subme=11 / psy=1 / fade_compensate=0.00 / psy_rd=1.05:0.10 / mixed_ref=1 / me_range=32 / chroma_me=1 / trellis=2 / 8x8dct=1 / cqm=0 / deadzone=21,11 / fast_pskip=0 / chroma_qp_offset=-3 / threads=18 / lookahead_threads=3 / sliced_threads=0 / nr=0 / decimate=0 / interlaced=0 / bluray_compat=0 / constrained_intra=0 / fgo=0 / bframes=10 / b_pyramid=2 / b_adapt=2 / b_bias=0 / direct=3 / weightb=1 / open_gop=0 / weightp=2 / keyint=250 / keyint_min=23 / scenecut=40 / intra_refresh=0 / rc_lookahead=80 / rc=2pass / mbtree=1 / bitrate=4944 / ratetol=1.0 / qcomp=0.70 / qpmin=0 / qpmax=69 / qpstep=4 / cplxblur=20.0 / qblur=0.5 / ip_ratio=1.40 / aq=1 / aq-strength=0.85 / aq-sensitivity=10.00 / aq-ifactor=1.00 / aq-pfactor=1.00 / aq-bfactor=1.00 / aq2=0
Language : Japanese
Default : Yes
Forced : No

Audio
ID : 2
Format : AC-3
Format/Info : Audio Coding 3
Mode extension : CM (complete main)
Format settings, Endianness : Big
Codec ID : A_AC3
Duration : 1h 42mn
Bit rate mode : Constant
Bit rate : 640 Kbps
Channel(s) : 6 channels
Channel positions : Front: L C R, Side: L R, LFE
Sampling rate : 48.0 KHz
Frame rate : 31.250 fps (1536 spf)
Compression mode : Lossy
Stream size : 468 MiB (11%)
Language : Japanese
Default : Yes
Forced : No

Text #1
ID : 3
Format : ASS
Codec ID : S_TEXT/ASS
Codec ID/Info : Advanced Sub Station Alpha
Duration : 1h 42mn
Bit rate : 51 bps
Count of elements : 909
Compression mode : Lossless
Stream size : 38.5 KiB (0%)
Title : Simplified
Language : Chinese
Default : Yes
Forced : No

Text #2
ID : 4
Format : ASS
Codec ID : S_TEXT/ASS
Codec ID/Info : Advanced Sub Station Alpha
Duration : 1h 42mn
Bit rate : 51 bps
Count of elements : 909
Compression mode : Lossless
Stream size : 38.5 KiB (0%)
Title : Traditional
Language : Chinese
Default : No
Forced : No

Text #3
ID : 5
Format : UTF-8
Codec ID : S_TEXT/UTF8
Codec ID/Info : UTF-8 Plain Text
Duration : 1h 41mn
Bit rate : 23 bps
Count of elements : 835
Stream size : 17.7 KiB (0%)
Title : Simplified
Language : Chinese
Default : No
Forced : No

Text #4
ID : 6
Format : UTF-8
Codec ID : S_TEXT/UTF8
Codec ID/Info : UTF-8 Plain Text
Duration : 1h 41mn
Bit rate : 23 bps
Count of elements : 835
Stream size : 17.7 KiB (0%)
Title : Traditional
Language : Chinese
Default : No
Forced : No

Menu
00:00:00.000 : en:00:00:00.000
00:08:56.869 : en:00:08:56.869
00:20:55.504 : en:00:20:55.504
00:39:02.923 : en:00:39:02.923
00:49:39.977 : en:00:49:39.977
01:03:33.017 : en:01:03:33.017
01:16:42.014 : en:01:16:42.014
01:31:14.969 : en:01:31:14.969
01:42:18.131 : en:01:42:18.131


Video
ID : 1
Format : AVC
Format/Info : Advanced Video Codec
Format profile : High@L4.1
Format settings, CABAC : Yes
Format settings, ReFrames : 5 frames
Codec ID : V_MPEG4/ISO/AVC
Duration : 1h 42mn
Bit rate : 11.1 Mbps
Width : 1 920 pixels
Height : 804 pixels
Display aspect ratio : 2.40:1
Frame rate mode : Constant
Frame rate : 23.976 (24000/1001) fps
Color space : YUV
Chroma subsampling : 4:2:0
Bit depth : 8 bits
Scan type : Progressive
Bits/(Pixel*Frame) : 0.299
Stream size : 7.91 GiB (88%)
Writing library : x264 core 129 r2245+704+36 8e61944 tMod+MixAQ [8-bit@4:2:0 X86_64]
Encoding settings : cabac=1 / ref=5 / deblock=1:-3:-3 / analyse=0x3:0x133 / me=umh / subme=11 / psy=1 / fade_compensate=0.00 / psy_rd=1.05:0.10 / mixed_ref=1 / me_range=64 / chroma_me=1 / trellis=2 / 8x8dct=1 / cqm=0 / deadzone=21,11 / fast_pskip=0 / chroma_qp_offset=-3 / threads=18 / lookahead_threads=3 / sliced_threads=0 / nr=0 / decimate=0 / interlaced=0 / bluray_compat=0 / constrained_intra=0 / fgo=0 / bframes=10 / b_pyramid=2 / b_adapt=2 / b_bias=0 / direct=3 / weightb=1 / open_gop=0 / weightp=2 / keyint=250 / keyint_min=23 / scenecut=40 / intra_refresh=0 / rc_lookahead=80 / rc=2pass / mbtree=1 / bitrate=11068 / ratetol=1.0 / qcomp=0.70 / qpmin=0 / qpmax=69 / qpstep=4 / cplxblur=20.0 / qblur=0.5 / ip_ratio=1.40 / aq=1 / aq-strength=0.85 / aq-sensitivity=10.00 / aq-ifactor=1.00 / aq-pfactor=1.00 / aq-bfactor=1.00 / aq2=0
Language : Japanese
Default : Yes
Forced : No

Audio
ID : 2
Format : DTS
Format/Info : Digital Theater Systems
Mode : 16
Format settings, Endianness : Big
Codec ID : A_DTS
Duration : 1h 42mn
Bit rate mode : Constant
Bit rate : 1 509 Kbps
Channel(s) : 6 channels
Channel positions : Front: L C R, Side: L R, LFE
Sampling rate : 48.0 KHz
Frame rate : 93.750 fps (512 spf)
Bit depth : 24 bits
Compression mode : Lossy
Stream size : 1.08 GiB (12%)
Language : Japanese
Default : Yes
Forced : No

Text #1
ID : 3
Format : ASS
Codec ID : S_TEXT/ASS
Codec ID/Info : Advanced Sub Station Alpha
Duration : 1h 42mn
Bit rate : 51 bps
Count of elements : 909
Compression mode : Lossless
Stream size : 38.5 KiB (0%)
Title : Simplified
Language : Chinese
Default : Yes
Forced : No

Text #2
ID : 4
Format : ASS
Codec ID : S_TEXT/ASS
Codec ID/Info : Advanced Sub Station Alpha
Duration : 1h 42mn
Bit rate : 51 bps
Count of elements : 909
Compression mode : Lossless
Stream size : 38.5 KiB (0%)
Title : Traditional
Language : Chinese
Default : No
Forced : No

Text #3
ID : 5
Format : UTF-8
Codec ID : S_TEXT/UTF8
Codec ID/Info : UTF-8 Plain Text
Duration : 1h 41mn
Bit rate : 23 bps
Count of elements : 835
Stream size : 17.7 KiB (0%)
Title : Simplified
Language : Chinese
Default : No
Forced : No

Text #4
ID : 6
Format : UTF-8
Codec ID : S_TEXT/UTF8
Codec ID/Info : UTF-8 Plain Text
Duration : 1h 41mn
Bit rate : 23 bps
Count of elements : 835
Stream size : 17.7 KiB (0%)
Title : Traditional
Language : Chinese
Default : No
Forced : No

Menu
00:00:00.000 : en:00:00:00.000
00:08:56.869 : en:00:08:56.869
00:20:55.504 : en:00:20:55.504
00:39:02.923 : en:00:39:02.923
00:49:39.977 : en:00:49:39.977
01:03:33.017 : en:01:03:33.017
01:16:42.014 : en:01:16:42.014
01:31:14.969 : en:01:31:14.969
01:42:18.131 : en:01:42:18.131
NitroFlare (Single links)
http://nitroflare.com/view/D708CA1DC90DCE6/If.Cats.Disappeared.from.the.World.2016.720p.BluRay.x264-WiKi.mkv
http://nitroflare.com/view/3ACE36CC6985AC2/If.Cats.Disappeared.from.the.World.2016.1080p.BluRay.x264.DTS-WiKi.mkv


http://nitroflare.com/view/1DB098D7D1617AC/If.Cats.Disappeared.from.the.World.2016.720p.BluRay.x264-WiKi.part1.rar
http://nitroflare.com/view/23FDEDEEB730FB4/If.Cats.Disappeared.from.the.World.2016.720p.BluRay.x264-WiKi.part2.rar
http://nitroflare.com/view/DAAA73923063ADB/If.Cats.Disappeared.from.the.World.2016.720p.BluRay.x264-WiKi.part3.rar
http://nitroflare.com/view/969052518B7933C/If.Cats.Disappeared.from.the.World.2016.720p.BluRay.x264-WiKi.part4.rar
http://nitroflare.com/view/BEE4B529E39AA5B/If.Cats.Disappeared.from.the.World.2016.720p.BluRay.x264-WiKi.part5.rar

http://nitroflare.com/view/9EDF97C6309AC42/If.Cats.Disappeared.from.the.World.2016.1080p.BluRay.x264.DTS-WiKi.part01.rar
http://nitroflare.com/view/8B9EF9ACA2939D8/If.Cats.Disappeared.from.the.World.2016.1080p.BluRay.x264.DTS-WiKi.part02.rar
http://nitroflare.com/view/CF0020220D3F431/If.Cats.Disappeared.from.the.World.2016.1080p.BluRay.x264.DTS-WiKi.part03.rar
http://nitroflare.com/view/658EBBC64E149C8/If.Cats.Disappeared.from.the.World.2016.1080p.BluRay.x264.DTS-WiKi.part04.rar
http://nitroflare.com/view/46874F59F862241/If.Cats.Disappeared.from.the.World.2016.1080p.BluRay.x264.DTS-WiKi.part05.rar
http://nitroflare.com/view/B9ECF4F39B763DC/If.Cats.Disappeared.from.the.World.2016.1080p.BluRay.x264.DTS-WiKi.part06.rar
http://nitroflare.com/view/199C12FFE3B4E01/If.Cats.Disappeared.from.the.World.2016.1080p.BluRay.x264.DTS-WiKi.part07.rar
http://nitroflare.com/view/3B3444694A73F5E/If.Cats.Disappeared.from.the.World.2016.1080p.BluRay.x264.DTS-WiKi.part08.rar
http://nitroflare.com/view/E02A3E39B3EAF4D/If.Cats.Disappeared.from.the.World.2016.1080p.BluRay.x264.DTS-WiKi.part09.rar
http://nitroflare.com/view/2DFD978B03D576B/If.Cats.Disappeared.from.the.World.2016.1080p.BluRay.x264.DTS-WiKi.part10.rar