(Fr2) Chez Maupassant S01E07 : Miss Harriet (2007)

Posted By: Morocco
(Fr2) Chez Maupassant S01E07 : Miss Harriet (2007)

(Fr2) Chez Maupassant S01E07 : Miss Harriet (2007)
TNT-Rip by Clo2 | French | 56min | 640 x 360 | 25.000 fps | Avi | MPEG-4 XviD @ 900 Kbps | MP3 @ 128 Kbps | 419 MB
Genre : Série, Classique | Réalisé par : Jacques Rouffio | Avec : Jérémie Renier, Laure Killing

Au cours d'une longue traversée en voiture, Chenal, peintre réputé, accepte de rendre plus agréable le voyage de ses amis en leur montrant une oeuvre de jeunesse qui le replonge des années en arrière. A l'époque, encore étudiant, il parcourt la campagne son chevalet sous le bras. Dans une auberge, il fait la rencontre de Miss Harriet, une vieille Anglaise excessivement prude. D'un abord difficile, la célibataire endurcie se laisse peu à peu charmer par Chenal. Exaltée par la nature, elle trouve des affinités avec le jeune peintre dont elle apprécie les peinteures de paysages sauvages. Bientôt, les deux pensionnaires se rapprochent.

Format : AVI
Format/Info : Audio Video Interleave
File size : 419 MiB
Duration : 56mn 26s
Overall bit rate : 1 037 Kbps
Writing application : VirtualDubMod 1.5.10.3 Fr | www.virtualdub-fr.org || (build 2550/release)
Writing library : VirtualDubMod build 2550/release

Video
ID : 0
Format : MPEG-4 Visual
Format profile : Advanced Simple@L5
Format settings, BVOP : 2
Format settings, QPel : No
Format settings, GMC : No warppoints
Format settings, Matrix : Default (H.263)
Muxing mode : Packed bitstream
Codec ID : XVID
Codec ID/Hint : XviD
Duration : 56mn 26s
Bit rate : 900 Kbps
Width : 640 pixels
Height : 360 pixels
Display aspect ratio : 16:9
Frame rate : 25.000 fps
Color space : YUV
Chroma subsampling : 4:2:0
Bit depth : 8 bits
Scan type : Progressive
Compression mode : Lossy
Bits/(Pixel*Frame) : 0.156
Stream size : 363 MiB (87%)
Writing library : XviD 1.2.0.dev47 (UTC 2006-11-01)

Audio
ID : 1
Format : MPEG Audio
Format version : Version 1
Format profile : Layer 3
Mode : Joint stereo
Mode extension : MS Stereo
Codec ID : 55
Codec ID/Hint : MP3
Duration : 56mn 26s
Bit rate mode : Constant
Bit rate : 128 Kbps
Channel(s) : 2 channels
Sampling rate : 48.0 KHz
Compression mode : Lossy
Stream size : 51.7 MiB (12%)
Alignment : Split accross interleaves
Interleave, duration : 40 ms (1.00 video frame)
Interleave, preload duration : 500 ms


(Fr2) Chez Maupassant S01E07 : Miss Harriet (2007)

(Fr2) Chez Maupassant S01E07 : Miss Harriet (2007)

(Fr2) Chez Maupassant S01E07 : Miss Harriet (2007)

~ Lien ~



Password : Morocco


Un merci ?

No Mirrors !