Tags
Language
Tags

NG. - YouTube Revolution (2019)

Posted By: notbanned
720p (HD) / HDTV
NG. - YouTube Revolution (2019)

NG. - YouTube Revolution (2019)
HDTV | 1280x720 | .MKV/AVC @ 2715 Kbps | 43 min 59 s | 995 MiB
Audio: English AC3 384 kbps, 6 channels | Subs: None
Genre: Documentary

As YouTube turns ten, we chart the history of the last decade through the lens of the world's most famous video sharing site. This is the inside story on the biggest and most influential viral videos in history, and the platform's meteoric rise from start-up to major corporate player. It's the human story of those who created it, the stars it gave birth to, and the countries whose fates it changed. On April 23, 2005 the first YouTube video, "Meet Me at the Zoo," featuring co-founder Jawed Karim, was uploaded. Ten Years later, the video sharing platform has harnessed a power that has changed the world -transforming pop culture, rewriting the rules of politics, overthrowing governments, redefining the nature of news, and exposing us all to tweaking, planking, Psy, Beiber, and the car in the shark outfit on the robo-vac. This is the story of how all that happened in a single.

General
Unique ID : 222654647541486508825616564642474856565 (0xA781B9ACFAD949AC8F37F22C748B9075)
Complete name : nat.geo.youtube.revolution-720p.mkv
Format : Matroska
Format version : Version 4 / Version 2
File size : 995 MiB
Duration : 43 min 59 s
Overall bit rate : 3 162 kb/s

Video
ID : 1
Format : AVC
Format/Info : Advanced Video Codec
Format profile : High@L4.1
Format settings, CABAC : Yes
Format settings, ReFrames : 5 frames
Codec ID : V_MPEG4/ISO/AVC
Duration : 43 min 59 s
Bit rate : 2 715 kb/s
Width : 1 280 pixels
Height : 720 pixels
Display aspect ratio : 16:9
Frame rate mode : Constant
Frame rate : 25.000 FPS
Color space : YUV
Chroma subsampling : 4:2:0
Bit depth : 8 bits
Scan type : Progressive
Bits/(Pixel*Frame) : 0.118
Stream size : 854 MiB (86%)
Writing library : x264 core 148 r2597 e86f3a1
Encoding settings : cabac=1 / ref=5 / deblock=1:0:0 / analyse=0x3:0x113 / me=umh / subme=9 / psy=1 / psy_rd=1.00:0.00 / mixed_ref=1 / me_range=16 / chroma_me=1 / trellis=1 / 8x8dct=1 / cqm=0 / deadzone=21,11 / fast_pskip=0 / chroma_qp_offset=-2 / threads=12 / lookahead_threads=1 / sliced_threads=0 / nr=0 / decimate=1 / interlaced=0 / bluray_compat=0 / constrained_intra=0 / bframes=3 / b_pyramid=2 / b_adapt=2 / b_bias=0 / direct=3 / weightb=1 / open_gop=0 / weightp=2 / keyint=250 / keyint_min=25 / scenecut=40 / intra_refresh=0 / rc_lookahead=50 / rc=crf / mbtree=1 / crf=20.0 / qcomp=0.60 / qpmin=0 / qpmax=69 / qpstep=4 / ip_ratio=1.40 / aq=1:1.00
Language : English
Default : Yes
Forced : No

Audio
ID : 2
Format : AC-3
Format/Info : Audio Coding 3
Format settings, Endianness : Big
Codec ID : A_AC3
Duration : 43 min 59 s
Bit rate mode : Constant
Bit rate : 384 kb/s
Channel(s) : 6 channels
Channel positions : Front: L C R, Side: L R, LFE
Sampling rate : 48.0 kHz
Frame rate : 31.250 FPS (1536 spf)
Bit depth : 16 bits
Compression mode : Lossy
Stream size : 121 MiB (12%)
Service kind : Complete Main
Default : Yes
Forced : No


Screenshots:

NG. - YouTube Revolution (2019)

NG. - YouTube Revolution (2019)

NG. - YouTube Revolution (2019)

NG. - YouTube Revolution (2019)

NG. - YouTube Revolution (2019)