National Geographic - Nazi Megastructures: Series 3 (2016)

Posted By: notbanned
National Geographic - Nazi Megastructures: Series 3 (2016)

National Geographic - Nazi Megastructures: Series 3 (2016)
HDTV | 1280x720 | .MKV/AVC @ 2840 Kbps | 4x~43min | 6.39 GiB
Audio: English AC3 384 kbps, 6 channels | Subs: None
Genre: Documentary

In his quest for world domination, Hitler demanded the creation of some of the biggest and deadliest pieces of military hardware in history. Evidence of these terror weapons and incredible defensive structures are spread all across Europe, if you know where to look. Nazi Megastructures revisits significant historical locations to reveal the fascinating personal stories of the men who designed, built and operated these terrifying megastructures that still stand or exist today. Structured explored include: the Eagle’s Nest, a lavish tea house designed for Hitler to entertain guests and dignitaries high above his Alpine retreat in Bavaria, the fortified buildings constructed on the Channel Islands when this British territory came under German occupation. This truly fascinating series shows how these structures of the past remain today as poignant reminders of the terror they once held.
National Geographic - Nazi Megastructures: Series 3 (2016)

Part 1: Hitlers Island Megafortress
It’s June 1940 and the Nazis have taken the Channel Islands, where Hitler orders some of the most fortified structures in the Third Reich.

National Geographic - Nazi Megastructures: Series 3 (2016)

Part 2: The Eagles Nest
Hitler transformed his Alpine retreat in Bavaria into a fortified fiefdom, home to 2,000 SS troops and protected by a high level security system.

National Geographic - Nazi Megastructures: Series 3 (2016)

Part 3: Lightning War Machine
Ruins across Europe tell the story of Blitzkrieg, a revolution in warfare which almost gave Hitler the chance to create his Thousand Year Reich.

National Geographic - Nazi Megastructures: Series 3 (2016)

Part 4: Hitlers Killer Subs
Hitler planned a submarine to outperform all others. The Type 21 was the world's most advanced submarine: Hitler's sea-faring super weapon.

National Geographic - Nazi Megastructures: Series 3 (2016)

Part 5: Pacific Megaships
In the 1930s the Japanese begin designing the Yamato, the world's most powerful battleship, 30 per cent larger than anything their enemies have.

National Geographic - Nazi Megastructures: Series 3 (2016)

Part 6: Japanese Superfortress
In 1945 Japanese generals construct a network of defences and tunnels on Okinawa, creating a devastating killing ground for American troops.


General
Unique ID : 0 (0x0)
Complete name : nazi.megastructures.s03e01.mkv
Format : Matroska
Format version : Version 4 / Version 2
File size : 1.01 GiB
Duration : 43mn 58s
Overall bit rate : 3 290 Kbps
Video
ID : 1
Format : AVC
Format/Info : Advanced Video Codec
Format profile : High@L4.1
Format settings, CABAC : Yes
Format settings, ReFrames : 5 frames
Codec ID : V_MPEG4/ISO/AVC
Duration : 43mn 58s
Bit rate : 2 840 Kbps
Width : 1 280 pixels
Height : 720 pixels
Display aspect ratio : 16:9
Frame rate mode : Constant
Frame rate : 25.000 fps
Color space : YUV
Chroma subsampling : 4:2:0
Bit depth : 8 bits
Scan type : Progressive
Bits/(Pixel*Frame) : 0.123
Stream size : 893 MiB (86%)
Writing library : x264 core 148 r2692 64f4e24
Encoding settings : cabac=1 / ref=5 / deblock=1:0:0 / analyse=0x3:0x113 / me=umh / subme=8 / psy=1 / psy_rd=1.00:0.00 / mixed_ref=1 / me_range=16 / chroma_me=1 / trellis=1 / 8x8dct=1 / cqm=0 / deadzone=21,11 / fast_pskip=1 / chroma_qp_offset=-2 / threads=12 / lookahead_threads=2 / sliced_threads=0 / nr=0 / decimate=1 / interlaced=0 / bluray_compat=0 / constrained_intra=0 / bframes=3 / b_pyramid=2 / b_adapt=2 / b_bias=0 / direct=3 / weightb=1 / open_gop=0 / weightp=2 / keyint=250 / keyint_min=25 / scenecut=40 / intra_refresh=0 / rc_lookahead=50 / rc=crf / mbtree=1 / crf=20.0 / qcomp=0.60 / qpmin=0 / qpmax=69 / qpstep=4 / ip_ratio=1.40 / aq=1:1.00
Language : English
Default : Yes
Forced : No
Color range : Limited
Matrix coefficients : BT.709

Audio
ID : 2
Format : AC-3
Format/Info : Audio Coding 3
Mode extension : CM (complete main)
Format settings, Endianness : Big
Codec ID : A_AC3
Duration : 43mn 58s
Bit rate mode : Constant
Bit rate : 384 Kbps
Channel(s) : 6 channels
Channel positions : Front: L C R, Side: L R, LFE
Sampling rate : 48.0 KHz
Compression mode : Lossy
Stream size : 121 MiB (12%)
Language : English
Default : Yes
Forced : No


Screenshots:

National Geographic - Nazi Megastructures: Series 3 (2016)

National Geographic - Nazi Megastructures: Series 3 (2016)

National Geographic - Nazi Megastructures: Series 3 (2016)

National Geographic - Nazi Megastructures: Series 3 (2016)