Tags
Language
Tags

BBC - Planet Earth II: A World of Wonder (2016)

Posted By: Tutorial
BBC - Planet Earth II: A World of Wonder (2016)

BBC - Planet Earth II: A World of Wonder (2016)
HDTV 1080p | 1920 x 1080 | .MP4/AVC @ 3264 Kbps | 1h 29mn | English AAC 144 Kbps, 2 channels | 2.12 GB
HDTV 720p | 1280 x 720 | .MKV/AVC @ 3540 Kbps | 1h 29mn | English AAC 144 Kbps, 2 channels | 2.29 GB
Genre: Documentary, Nature / Subtitles: English

A compilation episode of the wildlife documentary series presented by David Attenborough, uncovering the secrets of animals across the globe.
Star: David Attenborough
More info: IMDB

Related Documentaries:
BBC - Planet Earth II 1of6 Islands (2016)
BBC - Planet Earth II: 2of6 Mountains (2016)
BBC - Planet Earth II: 3of6 Jungles (2016)
BBC - Planet Earth II: 4of6 Deserts (2016)
BBC - Planet Earth II: 5of6 Grasslands (2016)
BBC - Planet Earth II: 6of6 Cities (2016)
BBC - Planet Earth II: Season 1 (2016)
Planet Earth (2006)
Earth USA Version (2007)
Human Planet (2011)

General
Complete name : Planet.Earth.II.A.World.of.Wonder.1080p.mp4
Format : MPEG-4
Format profile : Base Media
Codec ID : isom
File size : 2.12 GiB
Duration : 1h 29mn
Overall bit rate mode : Variable
Overall bit rate : 3 414 Kbps
Movie name : Planet Earth II: A World of Wonder
Encoded date : UTC 2017-01-02 18:04:12
Tagged date : UTC 2017-01-02 18:04:12

Video
ID : 1
Format : hvc1
Codec ID : hvc1
Duration : 1h 29mn
Bit rate : 3 264 Kbps
Maximum bit rate : 25.8 Mbps
Width : 1 920 pixels
Height : 1 080 pixels
Display aspect ratio : 16:9
Frame rate mode : Constant
Frame rate : 25.000 fps
Bits/(Pixel*Frame) : 0.063
Stream size : 2.03 GiB (96%)
Title : http://forums.mvgroup.org
Encoded date : UTC 2017-01-02 17:53:40
Tagged date : UTC 2017-01-02 18:07:13

Audio
ID : 2
Format : AAC
Format/Info : Advanced Audio Codec
Format profile : LC
Codec ID : 40
Duration : 1h 29mn
Bit rate mode : Variable
Bit rate : 144 Kbps
Maximum bit rate : 185 Kbps
Channel(s) : 2 channels
Channel positions : Front: L R
Sampling rate : 48.0 KHz
Compression mode : Lossy
Stream size : 93.3 MiB (4%)
Title : English
Language : English
Encoded date : UTC 2017-01-01 19:00:39
Tagged date : UTC 2017-01-02 18:07:13
Material_Duration : 5340117
Material_StreamSize : 97823858

Text
ID : 3
Format : Timed text
Codec ID : tx3g
Duration : 1h 27mn
Bit rate mode : Variable
Bit rate : 38 bps
Stream size : 24.4 KiB (0%)
Title : English
Language : English
Encoded date : UTC 2017-01-02 18:07:13
Tagged date : UTC 2017-01-02 18:07:13

General
Unique ID : 251404167187476424475197988966433031735 (0xBD22AE6E762887919D1CBF97613C0637)
Complete name : Planet.Earth.II.A.World.of.Wonder.720p.mkv
Format : Matroska
Format version : Version 4 / Version 2
File size : 2.29 GiB
Duration : 1h 29mn
Overall bit rate : 3 689 Kbps
Movie name : Planet Earth II: A World of Wonder
Encoded date : UTC 2017-01-02 02:30:42
Writing application : mkvmerge v9.7.1 ('Pandemonium') 64bit
Writing library : libebml v1.3.4 + libmatroska v1.4.5
DURATION : 01:27:42.200000000
NUMBER_OF_FRAMES : 559
NUMBER_OF_BYTES : 23371
_STATISTICS_WRITING_APP : mkvmerge v9.7.1 ('Pandemonium') 64bit
_STATISTICS_WRITING_DATE_UTC : 2017-01-02 02:30:42
_STATISTICS_TAGS : BPS DURATION NUMBER_OF_FRAMES NUMBER_OF_BYTES

Video
ID : 1
Format : AVC
Format/Info : Advanced Video Codec
Format profile : High@L4.1
Format settings, CABAC : Yes
Format settings, ReFrames : 6 frames
Codec ID : V_MPEG4/ISO/AVC
Duration : 1h 29mn
Width : 1 280 pixels
Height : 720 pixels
Display aspect ratio : 16:9
Frame rate : 25.000 fps
Color space : YUV
Chroma subsampling : 4:2:0
Bit depth : 8 bits
Scan type : Progressive
Title : http://forums.mvgroup.org
Writing library : x264 core 148 r2744 MVGroup
Encoding settings : cabac=1 / ref=6 / deblock=1:0:0 / analyse=0x3:0x113 / me=umh / subme=9 / psy=1 / psy_rd=1.00:0.00 / mixed_ref=1 / me_range=24 / chroma_me=1 / trellis=1 / 8x8dct=1 / cqm=0 / deadzone=21,11 / fast_pskip=0 / chroma_qp_offset=-2 / threads=3 / lookahead_threads=1 / sliced_threads=0 / nr=0 / decimate=1 / interlaced=0 / bluray_compat=0 / constrained_intra=0 / bframes=5 / b_pyramid=2 / b_adapt=2 / b_bias=0 / direct=1 / weightb=1 / open_gop=0 / weightp=2 / keyint=250 / keyint_min=25 / scenecut=40 / intra_refresh=0 / rc_lookahead=40 / rc=crf / mbtree=1 / crf=20.0 / qcomp=0.60 / qpmin=0 / qpmax=69 / qpstep=4 / ip_ratio=1.40 / aq=1:1.00
Language : English
Default : Yes
Forced : No

Audio
ID : 2
Format : AAC
Format/Info : Advanced Audio Codec
Format profile : LC
Codec ID : A_AAC
Duration : 1h 29mn
Channel(s) : 2 channels
Channel positions : Front: L R
Sampling rate : 48.0 KHz
Compression mode : Lossy
Delay relative to video : 9ms
Language : English
Default : Yes
Forced : No

Text
ID : 3
Format : UTF-8
Codec ID : S_TEXT/UTF8
Codec ID/Info : UTF-8 Plain Text
Language : English
Default : No
Forced : No
Screenshots HDTV 1080p

BBC - Planet Earth II: A World of Wonder (2016)

BBC - Planet Earth II: A World of Wonder (2016)

BBC - Planet Earth II: A World of Wonder (2016)

Screenshots HDTV 720p

BBC - Planet Earth II: A World of Wonder (2016)

BBC - Planet Earth II: A World of Wonder (2016)

BBC - Planet Earth II: A World of Wonder (2016)

Welcome to my blog - daily update!

BBC - Planet Earth II: A World of Wonder (2016)