(Fr3) Des Racines et des Ailes : Paris Rive Droite (2010)

Posted By: Morocco
(Fr3) Des Racines et des Ailes : Paris Rive Droite (2010)

(Fr3) Des Racines et des Ailes : Paris Rive Droite (2010)
TNT-Rip by Clo2 | French | 1h51min | 640 x 368 | 25.000 fps | Avi | MPEG-4 XviD @ 894 Kbps | MP3 @ 112 Kbps | 809 MB
Genre : Documentaire

Des Racines & des Ailes consacre une émission à "Paris Rive Droite". Pour l’occasion, le magazine installe son plateau dans l’ancienne salle de bal du Grand-Hôtel, un établissement construit en 1861 à la demande de Napoléon III et implanté au cœur du nouveau Paris haussmannien, face à l’Opéra Garnier…

La place de l’Opéra constitue alors le pôle le plus élégant du "boulevard" qui s’étend de Madeleine à Bastille : une promenade très prisée par les Parisiens qui aiment s’y montrer. Nous vous ferons revivre l’atmosphère festive et populaire des Grands Boulevards, de ses théâtres, ses passages et ses cinémas…

Autre lieu emblématique de la Rive Droite : l’Hôtel de Ville, situé sur la plus ancienne place de la capitale. Cet édifice de style Renaissance, après avoir été incendié sous la Commune, fut entièrement reconstruit à la fin du XIXème avec de très nombreux symboles républicains… De l’atelier des fleuristes au bureau du maire, en passant par les toits qui offrent des vues imprenables sur la capitale, nous vous ferons découvrir les coulisses de l’un des plus beaux monuments de Paris…

Nous nous rendrons enfin dans le quartier du Marais, où s’élèvent depuis la Renaissance de somptueux hôtels particuliers… Le Marais, qui jusqu’au Moyen-âge n’était constitué que de terres marécageuses, est considéré au XVIIème siècle comme le nouveau quartier à la mode… Un quartier où les artistes et les intellectuels tiennent salon… Aujourd’hui, ses adresses prestigieuses, comme la place des Vosges, en font un haut lieu de la culture et de l’histoire de la capitale.

Format : AVI
Format/Info : Audio Video Interleave
File size : 809 MiB
Duration : 1h 51mn
Overall bit rate : 1 016 Kbps
Writing application : VirtualDubMod 1.5.10.3 Fr | www.virtualdub-fr.org || (build 2550/release)
Writing library : VirtualDubMod build 2550/release

Video
ID : 0
Format : MPEG-4 Visual
Format profile : Advanced Simple@L5
Format settings, BVOP : 2
Format settings, QPel : No
Format settings, GMC : No warppoints
Format settings, Matrix : Default (H.263)
Muxing mode : Packed bitstream
Codec ID : XVID
Codec ID/Hint : XviD
Duration : 1h 51mn
Bit rate : 894 Kbps
Width : 640 pixels
Height : 368 pixels
Display aspect ratio : 16:9
Frame rate : 25.000 fps
Color space : YUV
Chroma subsampling : 4:2:0
Bit depth : 8 bits
Scan type : Progressive
Compression mode : Lossy
Bits/(Pixel*Frame) : 0.152
Stream size : 713 MiB (88%)
Writing library : XviD 1.2.0.dev49

Audio
ID : 1
Format : MPEG Audio
Format version : Version 1
Format profile : Layer 3
Mode : Joint stereo
Codec ID : 55
Codec ID/Hint : MP3
Duration : 1h 51mn
Bit rate mode : Constant
Bit rate : 112 Kbps
Channel(s) : 2 channels
Sampling rate : 48.0 KHz
Compression mode : Lossy
Stream size : 89.3 MiB (11%)
Alignment : Aligned on interleaves
Interleave, duration : 40 ms (1.00 video frame)
Interleave, preload duration : 504 ms


(Fr3) Des Racines et des Ailes : Paris Rive Droite (2010)

(Fr3) Des Racines et des Ailes : Paris Rive Droite (2010)

(Fr3) Des Racines et des Ailes : Paris Rive Droite (2010)

(Fr3) Des Racines et des Ailes : Paris Rive Droite (2010)

(Fr3) Des Racines et des Ailes : Paris Rive Droite (2010)

~ Liens interchangeables



No Pass ;)

Un merci ?

D'autres "Des Racines et des Ailes" ?>> Listing des documentaires ?