Road to Nowhere (2010)

Posted By: a_l_chemist
Road to Nowhere (2010)

Road to Nowhere (2010)
BDRip | AVI | XviD | 720x416, 651 kbps | English: AC3, 6ch, 448 kbps | 02:01:25 | 1,00 GB
Genre: Romance | Thriller

Road to Nowhere is a 2010 American romance thriller independent film directed by Monte Hellman, written by Steven Gaydos, and starring Cliff De Young, Waylon Payne, Shannyn Sossamon, Tygh Runyan, and Dominique Swain. The film premiered on September 10, 2010 at the 67th Venice International Film Festival and won Jury Award Special Lion for Career Achievement.

Road to Nowhere (2010)

Plot: Two-Lane Blacktop director Monte Hellman teams with frequent screenwriting partner Steven Gaydos for this thriller about a young film director (Tygh Runyan) whose mesmerizing leading lady (Shannyn Sossamon) may be responsible for the recent disappearance of a wealthy couple. Convinced that the recent scandal involving an aging North Carolina senator and his attractive young aide has all the makings of a hit thriller, director Mitchell Haven (Runyan) begins adapting the story for the screen. But when the time comes for Mitchell to cast his female lead, no Hollywood actress he auditions can make the cut. Desperate, the director recruits an unknown (Sossamon) who not only refuses to acknowledge herself as an actor, but whose reluctance to reveal any personal information leads some of the cast and crew to suspect that she may actually be the elusive femme fatale whose story inspired the film.
–from wikipedia
…..IMDb | Rovi
Road to Nowhere (2010)

Road to Nowhere (2010)

Road to Nowhere (2010)

Road to Nowhere (2010)

Road to Nowhere (2010)

General
Complete name : F:\Movies\Road to Nowhere\Road to Nowhere.avi
Format : AVI
Format/Info : Audio Video Interleave
File size : 962 MiB
Duration : 2h 1mn
Overall bit rate : 1 108 Kbps
Writing application : VirtualDubMod 1.5.10.2 (build 2540/release)
Writing library : VirtualDubMod build 2540/release

Video
ID : 0
Format : MPEG-4 Visual
Format profile : Advanced Simple@L5
Format settings, BVOP : 2
Format settings, QPel : No
Format settings, GMC : No warppoints
Format settings, Matrix : Default (H.263)
Muxing mode : Packed bitstream
Codec ID : XVID
Codec ID/Hint : XviD
Duration : 2h 1mn
Bit rate : 651 Kbps
Width : 720 pixels
Height : 416 pixels
Display aspect ratio : 16:9
Frame rate : 23.976 fps
Color space : YUV
Chroma subsampling : 4:2:0
Bit depth : 8 bits
Scan type : Progressive
Compression mode : Lossy
Bits/(Pixel*Frame) : 0.091
Stream size : 565 MiB (59%)
Writing library : XviD 1.1.0 (UTC 2005-11-22)

Audio
ID : 1
Format : AC-3
Format/Info : Audio Coding 3
Mode extension : CM (complete main)
Codec ID : 2000
Duration : 2h 1mn
Bit rate mode : Constant
Bit rate : 448 Kbps
Channel(s) : 6 channels
Channel positions : Front: L C R, Side: L R, LFE
Sampling rate : 48.0 KHz
Bit depth : 16 bits
Compression mode : Lossy
Stream size : 389 MiB (40%)
Alignment : Split accross interleaves
Interleave, duration : 42 ms (1.00 video frame)
Interleave, preload duration : 500 ms

Download:

Fileserve
List of links

Filesonic
List of links

Wupload
List of links

Interchangeable links

My blog on AvaxHome

.: No Mirrors Please :.