Sebastiane

Posted By: TimMa
Sebastiane

Sebastiane
1976 | Latin | DVD-Rip | AVI | 720x544 | DivX 1048 Kbps 25.000 fps | MP3 128 Kbps | Lenght: 01:21:00 | 723.8 Mb
Genre: Drama/History/Thriller | Studio: BBC Worldwide | Subtitles: English

Sebastiane is a controversial 1976 film written and directed by Derek Jarman and Paul Humfress. It portrays the events of the life of Saint Sebastian, including his iconic martyrdom by arrows. Most of the controversy surrounding the film derives from the homoeroticism portrayed between the soldiers. It is significant for being the first film to be entirely recorded accurately in Latin, which went as far as the translation of some dialogue into vulgar Latin.

300 A.D. : the Roman Sebastianus is exiled to a remote outpost populated exclusively by men. Weakened by their desires, these men turn to homosexual activities to satisfy their needs. However, Sebastianus becomes the target of lust for a homosexual centurion, but he rejects the man's advances.
Sebastiane
Il film segue le vicende di un avamposto di un esercito romano in cui alcuni soldati si abbandonano al piacere omosessuale.Un centurione romano dimostra un interesse particolare per Sebastiano (un bellissimo Leonardo Treviglio), che pero rifiuta le sue avances. L'ufficiale, indispettito, martirizzera infine il ritroso prigioniero legandolo a un palo e facendolo trafiggere dalle frecce.
Sebastiane e un controverso film del 1976, scritto e diretto da Derek Jarman e Paul Humfress.
Jarman riprende una versione apocrifa della vita san Sebastiano, in circolazione solo dagli inizi del XX secolo e dal Martyre de Saint Sebastien di Gabriele D'Annunzio, ma assai diffusa all'interno della comunita gay, che faceva del giovane soldato l'amante dell'imperatore. Coinvolto in un attentato all'imperatore, il giovane cristiano viene inviato al confino sotto scorta.
Jarman scelse questo film per proporre immagini d'intimita fisica fra uomini, mostrati in nudita totale (cosa all'epoca ancora rara e molto trasgressiva) ed anche mentre amoreggiano, in scene deliberatamente romantiche e liriche, ma anche molto sensuali. E la maggior parte delle polemiche che questo film sollevo derivano proprio da questi due aspetti, la nudita e la presenza di rapporti omosessuali tra i soldati romani che montano la guardia a Sebastiano.
Cio che rende questo film particolare e il fatto di essere stato girato completamente in latino. Per questo e l'unico film mai girato in Inghilterra e distribuito con sottotitoli in inglese.
Format : AVI
Format/Info : Audio Video Interleave
File size : 696 MiB
Duration : 1h 21mn
Overall bit rate : 1 188 Kbps

Video
ID : 0
Format : MPEG-4 Visual
Format profile : Simple@L1
Format settings, BVOP : No
Format settings, QPel : No
Format settings, GMC : No warppoints
Format settings, Matrix : Default (H.263)
Codec ID : DX50
Codec ID/Hint : DivX 5
Duration : 1h 21mn
Bit rate : 1 048 Kbps
Width : 720 pixels
Height : 544 pixels
Display aspect ratio : 4:3
Frame rate : 25.000 fps
Color space : YUV
Chroma subsampling : 4:2:0
Bit depth : 8 bits
Scan type : Progressive
Compression mode : Lossy
Bits/(Pixel*Frame) : 0.107
Stream size : 613 MiB (88%)
Writing library : FFmpeg0.4.8b4680

Audio
ID : 1
Format : MPEG Audio
Format version : Version 1
Format profile : Layer 3
Mode : Joint stereo
Mode extension : MS Stereo
Codec ID : 55
Codec ID/Hint : MP3
Duration : 1h 21mn
Bit rate mode : Constant
Bit rate : 128 Kbps
Channel(s) : 2 channels
Sampling rate : 44.1 KHz
Compression mode : Lossy
Delay relative to video : 26ms
Stream size : 74.9 MiB (11%)
Alignment : Split accross interleaves
Interleave, duration : 26 ms (0.65 video frame)
Sebastiane
Sebastiane
Sebastiane
Sebastiane

Sebastiane