Tags
Language
Tags

The Fourth Phase (2016)

Posted By: notbanned
The Fourth Phase (2016)

The Fourth Phase (2016)
DVDRip | 720x386 | .MKV/AVC @ 1277 Kbps | 1h 32min | 937 MiB
Audio: English AAC 141 kbps, 2 channels | Subs: None
Genre: Documentary | Action | Adventure | Sport

Iconic snowboarder Travis Rice and friends embark on a multi-year mission to follow the North Pacific Gyre's flow. As Rice and the crew experience the highs and lows of a journey unlike any previously attempted, cutting-edge cinematography captures some of the world's most remote environments bringing breathtaking scenery and thrilling action to viewers worldwide.
More info


General
Unique ID : 254304793572534746005439311621512760112 (0xBF51525A8E048BD9AB479BD9132C0B30)
Complete name : thefourthphase.mkv
Format : Matroska
Format version : Version 4 / Version 2
File size : 937 MiB
Duration : 1 h 32 min
Overall bit rate : 1 420 kb/s

Video
ID : 2
Format : AVC
Format/Info : Advanced Video Codec
Format profile : High@L3.1
Format settings, CABAC : Yes
Format settings, ReFrames : 8 frames
Codec ID : V_MPEG4/ISO/AVC
Duration : 1 h 32 min
Bit rate : 1 277 kb/s
Width : 720 pixels
Height : 386 pixels
Display aspect ratio : 1.85:1
Frame rate mode : Constant
Frame rate : 23.976 (24000/1001) FPS
Color space : YUV
Chroma subsampling : 4:2:0
Bit depth : 8 bits
Scan type : Progressive
Bits/(Pixel*Frame) : 0.192
Stream size : 843 MiB (90%)
Writing library : x264 core 148 r2744 b97ae06
Encoding settings : cabac=1 / ref=8 / deblock=1:0:0 / analyse=0x3:0x133 / me=tesa / subme=9 / psy=1 / psy_rd=1.00:0.00 / mixed_ref=1 / me_range=24 / chroma_me=1 / trellis=2 / 8x8dct=1 / cqm=0 / deadzone=21,11 / fast_pskip=0 / chroma_qp_offset=-2 / threads=6 / lookahead_threads=1 / sliced_threads=0 / nr=0 / decimate=1 / interlaced=0 / bluray_compat=0 / constrained_intra=0 / bframes=16 / b_pyramid=2 / b_adapt=2 / b_bias=0 / direct=3 / weightb=1 / open_gop=0 / weightp=2 / keyint=250 / keyint_min=23 / scenecut=40 / intra_refresh=0 / rc_lookahead=60 / rc=crf / mbtree=1 / crf=19.0 / qcomp=0.60 / qpmin=0 / qpmax=69 / qpstep=4 / ip_ratio=1.40 / aq=1:1.00
Default : Yes
Forced : No

Audio
ID : 1
Format : AAC
Format/Info : Advanced Audio Codec
Format profile : LC
Codec ID : A_AAC
Duration : 1 h 32 min
Bit rate : 141 kb/s
Channel(s) : 2 channels
Channel positions : Front: L R
Sampling rate : 48.0 kHz
Frame rate : 46.875 FPS (1024 spf)
Compression mode : Lossy
Delay relative to video : 20 ms
Stream size : 93.0 MiB (10%)
Default : Yes
Forced : No

Menu
00:00:00.000 : en:Chapter 1
00:04:13.868 : en:Chapter 2
00:10:54.836 : en:Chapter 3
00:18:18.836 : en:Chapter 4
00:21:49.503 : en:Chapter 5
00:38:07.770 : en:Chapter 6
00:52:18.905 : en:Chapter 7
01:19:09.672 : en:Chapter 8
01:32:09.406 : en:Chapter 9


Screenshots:

The Fourth Phase (2016)

The Fourth Phase (2016)

The Fourth Phase (2016)

The Fourth Phase (2016)