Subcategories

The World Is Not Enough (1999)

Posted By: a_l_chemist
The World Is Not Enough (1999)

The World Is Not Enough (1999)
BDRip | AVI | XviD | 720x304, 23.976 fps, 1424 kbps | 02:08:20 | 1,77 GB
English: AC3, 6ch, 448 kbps | Subs: English (srt)
Genre: Action | Adventure | Thriller

The World Is Not Enough is the nineteenth spy film in the James Bond film series, and the third to star Pierce Brosnan as the MI6 agent James Bond. The film was directed by Michael Apted, with the original story and screenplay written by Neal Purvis, Robert Wade and Bruce Feirstein. The film also starring Robert Carlyle, Denise Richards, Judi Dench, Robbie Coltrane and Sophie Marceau.

The World Is Not Enough (1999)

Plot: MI6 agent James Bond - '007' - meets a Swiss banker to retrieve money for Sir Robert King, a British oil tycoon and friend of M. The banker threatens Bond, but is overpowered. The banker reveals the money was taken from the late agent 0012, but is killed by his assistant before he can reveal the assassin. Bond escapes with the money. Back in London, Sir Robert is killed by the booby-trapped money inside MI6. Bond gives chase to the assassin - the assistant again - by a boat on the Thames to the Millennium Dome, where the assassin attempts to escape via hot air balloon. Bond offers her protection, but she refuses. She detonates the balloon, killing herself. Bond traces the recovered money to Renard, a KGB agent-turned-terrorist. Following an earlier attempt on his life by MI6, Renard was left with a bullet in his brain which is gradually destroying his senses, making him immune to pain. M assigns Bond to protect King's daughter, Elektra; as Renard previously abducted and held her for ransom, MI6 believes that he is targeting her a second time. Bond flies to Azerbaijan, where Elektra is overseeing the construction of an oil pipeline.

The World Is Not Enough (1999)

During a tour of the pipeline's proposed route in the mountains, Bond and Elektra are attacked by a hit squad in armed, paraglider-equipped snowmobiles. Afterwards Bond visits Valentin Zukovsky to acquire information about Elektra's attackers; he discovers that Elektra's head of security, Davidov, is secretly in league with Renard. Bond kills Davidov and boards a plane bound for a Russian ICBM base in Kazakhstan. There, Bond, posing as a Russian nuclear scientist, meets American nuclear physicist, Dr. Christmas Jones and enters the silo. Inside, Renard removes the GPS locator card and a half quantity of weapons-grade plutonium from a bomb. Before Bond can kill him, Christmas blows his cover. Renard steals the bomb and flees, leaving everyone to die in the booby-trapped missile silo. Bond and Christmas escape the exploding silo with the locator card. Back in Azerbaijan, Bond discloses to M that Elektra may not be as innocent as she seems, and hands her the locator card as proof of the theft: an alarm sounds, revealing that the stolen bomb from Kazakhstan is attached to an inspection rig heading toward the oil terminal.
–from wikipedia
…..IMDb
The World Is Not Enough (1999)

The World Is Not Enough (1999)

The World Is Not Enough (1999)

The World Is Not Enough (1999)

The World Is Not Enough (1999)

General
File name : The World Is Not Enough.avi
Format : AVI
Format/Info : Audio Video Interleave
File size : 1.69 GiB
Duration : 2h 8mn
Overall bit rate : 1 881 Kbps
Movie name : The World Is Not Enough
Writing application : VirtualDubMod 1.5.10.2 (build 2540/release)
Writing library : VirtualDubMod build 2540/release

Video
ID : 0
Format : MPEG-4 Visual
Format profile : Advanced Simple@L5
Format settings, BVOP : 1
Format settings, QPel : No
Format settings, GMC : No warppoints
Format settings, Matrix : Custom
Codec ID : XVID
Codec ID/Hint : XviD
Duration : 2h 8mn
Bit rate : 1 424 Kbps
Width : 720 pixels
Height : 304 pixels
Display aspect ratio : 2.35:1
Frame rate : 23.976 fps
Color space : YUV
Chroma subsampling : 4:2:0
Bit depth : 8 bits
Scan type : Progressive
Compression mode : Lossy
Bits/(Pixel*Frame) : 0.271
Stream size : 1.28 GiB (76%)
Writing library : XviD 1.2.1 (UTC 2008-12-04)

Audio
ID : 1
Format : AC-3
Format/Info : Audio Coding 3
Mode extension : CM (complete main)
Codec ID : 2000
Duration : 2h 8mn
Bit rate mode : Constant
Bit rate : 448 Kbps
Channel(s) : 6 channels
Channel positions : Front: L C R, Side: L R, LFE
Sampling rate : 48.0 KHz
Bit depth : 16 bits
Compression mode : Lossy
Stream size : 411 MiB (24%)
Alignment : Split accross interleaves
Interleave, duration : 42 ms (1.00 video frame)
Interleave, preload duration : 500 ms
Title : English