Tags
Language
Tags

24 S01E11

Posted By: Tavaz
1080p (FullHD) / BDRip IMDb
24 S01E11

24 S01E11
BluRay Remux | MKV | 1920x1080 | English | H264 @ 25747 kbps | AC-3 @ 224 kbps | 42 min 43 s | 7.77 GiB
Subtitles: Japanese, English
Genre: Drama

24 is an American television series produced for the Fox network and syndicated worldwide, starring Kiefer Sutherland as Counter Terrorist Unit agent Jack Bauer. Each 24-episode season covers 24 hours in the life of Bauer, using the real time method of narration.

129cd959c0df4b4c84d0a8340956b51c.mkv (7.8 GB)



General
Unique ID : 95321043638340248848474512932261420688 (0x47B62A4C56A42B38DBC242005B055E90)
Complete name : ./129cd959c0df4b4c84d0a8340956b51c.mkv
Format : Matroska
Format version : Version 4 / Version 2
File size : 7.77 GiB
Duration : 42 min 43 s
Overall bit rate mode : Variable
Overall bit rate : 26.0 Mb/s
Encoded date : UTC 2017-08-08 02:16:55
Writing application : mkvmerge v14.0.0 ('Flow') 64bit
Writing library : libebml v1.3.4 + libmatroska v1.4.5

Video
ID : 1
Format : AVC
Format/Info : Advanced Video Codec
Format profile : High@L4.1
Format settings : CABAC / 2 Ref Frames
Format settings, CABAC : Yes
Format settings, RefFrames : 2 frames
Format settings, GOP : M=1, N=10
Codec ID : V_MPEG4/ISO/AVC
Duration : 42 min 43 s
Bit rate mode : Variable
Bit rate : 25.7 Mb/s
Width : 1 920 pixels
Height : 1 080 pixels
Display aspect ratio : 16:9
Frame rate mode : Constant
Frame rate : 23.976 (24000/1001) FPS
Color space : YUV
Chroma subsampling : 4:2:0
Bit depth : 8 bits
Scan type : Progressive
Bits/(Pixel*Frame) : 0.518
Stream size : 7.68 GiB (99%)
Title : MPEG-4 AVC Video / 25747 kbps / 1080p / 23.976 fps / 16:9 / High Profile 4.1
Language : English
Default : Yes
Forced : No

Audio
ID : 2
Format : AC-3
Format/Info : Audio Coding 3
Mode : Dolby Digital
Format settings, Endianness : Big
Codec ID : A_AC3
Duration : 42 min 43 s
Bit rate mode : Constant
Bit rate : 224 kb/s
Channel(s) : 2 channels
Channel positions : Front: L R
Sampling rate : 48.0 kHz
Frame rate : 31.250 FPS (1536 SPF)
Bit depth : 16 bits
Compression mode : Lossy
Stream size : 68.4 MiB (1%)
Title : Dolby Digital Audio / 2.0 / 48 kHz / 224 kbps / Dolby Surround
Language : English
Service kind : Complete Main
Default : Yes
Forced : No

Text #1
ID : 3
Format : PGS
Codec ID : S_HDMV/PGS
Codec ID/Info : Picture based subtitle format used on BDs/HD-DVDs
Duration : 41 min 43 s
Bit rate : 31.3 kb/s
Count of elements : 770
Stream size : 9.33 MiB (0%)
Title : SDH
Language : English
Default : No
Forced : No

Text #2
ID : 4
Format : PGS
Codec ID : S_HDMV/PGS
Codec ID/Info : Picture based subtitle format used on BDs/HD-DVDs
Duration : 41 min 43 s
Bit rate : 19.7 kb/s
Count of elements : 894
Stream size : 5.87 MiB (0%)
Language : Japanese
Default : No
Forced : No

Menu
00:00:00.000 : en:Chapter 1
00:11:52.879 : en:Chapter 2
00:20:17.591 : en:Chapter 3
00:27:14.967 : en:Chapter 4
00:33:58.703 : en:Chapter 5
00:42:05.189 : en:Chapter 6





24 S01E11


24 S01E11


24 S01E11


24 S01E11


24 S01E11

All episodes