Tags
Language
Tags

24 S09E10

Posted By: Tavaz
1080p (FullHD) / BluRay Remux IMDb
24 S09E10

24 S09E10
BluRay Remux | MKV | 1920x1080 | English | H264 @ 22471 kbps | DTS | 42 min 53 s | 7.86 GiB
Subtitles: Italian, Dutch, French, English
Genre: Drama

24 is an American television series produced for the Fox network and syndicated worldwide, starring Kiefer Sutherland as Counter Terrorist Unit agent Jack Bauer. Each 24-episode season covers 24 hours in the life of Bauer, using the real time method of narration.

e3a8deee19d14966846ea7e68c1cdb45.mkv (7.9 GB)



General
Unique ID : 223115245541257103337414207964010029944 (0xA7DA6EE90F803A3AB092DDF0F3F8A378)
Complete name : ./e3a8deee19d14966846ea7e68c1cdb45.mkv
Format : Matroska
Format version : Version 4 / Version 2
File size : 7.86 GiB
Duration : 42 min 53 s
Overall bit rate mode : Variable
Overall bit rate : 26.2 Mb/s
Movie name : 24 S09E10
Encoded date : UTC 2017-08-10 18:44:10
Writing application : mkvmerge v13.0.0 ('The Juggler') 64bit
Writing library : libebml v1.3.4 + libmatroska v1.4.5

Video
ID : 1
Format : AVC
Format/Info : Advanced Video Codec
Format profile : High@L4.1
Format settings : CABAC / 4 Ref Frames
Format settings, CABAC : Yes
Format settings, RefFrames : 4 frames
Codec ID : V_MPEG4/ISO/AVC
Duration : 42 min 53 s
Bit rate mode : Variable
Bit rate : 22.5 Mb/s
Maximum bit rate : 36.0 Mb/s
Width : 1 920 pixels
Height : 1 080 pixels
Display aspect ratio : 16:9
Frame rate mode : Constant
Frame rate : 23.976 (24000/1001) FPS
Color space : YUV
Chroma subsampling : 4:2:0
Bit depth : 8 bits
Scan type : Progressive
Bits/(Pixel*Frame) : 0.452
Stream size : 6.73 GiB (86%)
Default : Yes
Forced : No

Audio
ID : 2
Format : DTS
Format/Info : Digital Theater Systems
Format profile : MA / Core
Mode : 16
Format settings, Endianness : Big
Codec ID : A_DTS
Duration : 42 min 53 s
Bit rate mode : Variable / Constant
Bit rate : 3 587 kb/s / 1 509 kb/s
Channel(s) : 6 channels
Channel positions : Front: L C R, Side: L R, LFE
Sampling rate : 48.0 kHz
Frame rate : 93.750 FPS (512 SPF)
Bit depth : 24 bits
Compression mode : Lossless / Lossy
Stream size : 1.07 GiB (14%)
Title : DTS-HD MA 5.1
Language : English
Default : Yes
Forced : No

Text #1
ID : 3
Format : PGS
Codec ID : S_HDMV/PGS
Codec ID/Info : Picture based subtitle format used on BDs/HD-DVDs
Duration : 41 min 49 s
Bit rate : 49.1 kb/s
Count of elements : 1250
Stream size : 14.7 MiB (0%)
Title : English
Language : English
Default : No
Forced : No

Text #2
ID : 4
Format : PGS
Codec ID : S_HDMV/PGS
Codec ID/Info : Picture based subtitle format used on BDs/HD-DVDs
Duration : 42 min 36 s
Bit rate : 45.6 kb/s
Count of elements : 1274
Stream size : 13.9 MiB (0%)
Title : French
Language : French
Default : No
Forced : No

Text #3
ID : 5
Format : PGS
Codec ID : S_HDMV/PGS
Codec ID/Info : Picture based subtitle format used on BDs/HD-DVDs
Duration : 42 min 36 s
Bit rate : 44.1 kb/s
Count of elements : 1270
Stream size : 13.4 MiB (0%)
Title : Dutch
Language : Dutch
Default : No
Forced : No

Text #4
ID : 6
Format : PGS
Codec ID : S_HDMV/PGS
Codec ID/Info : Picture based subtitle format used on BDs/HD-DVDs
Duration : 42 min 36 s
Bit rate : 44.7 kb/s
Count of elements : 1274
Stream size : 13.6 MiB (0%)
Title : Italian
Language : Italian
Default : No
Forced : No

Menu
00:00:00.000 : en:00:00:00.000
00:02:20.849 : en:00:02:20.849
00:05:50.600 : en:00:05:50.600
00:10:43.726 : en:00:10:43.726
00:15:33.182 : en:00:15:33.182
00:18:24.854 : en:00:18:24.854
00:22:05.908 : en:00:22:05.908
00:25:31.029 : en:00:25:31.029
00:29:06.536 : en:00:29:06.536
00:32:14.766 : en:00:32:14.766
00:35:33.840 : en:00:35:33.840
00:42:15.950 : en:00:42:15.950





24 S09E10


24 S09E10


24 S09E10


24 S09E10


24 S09E10

All episodes