Tags
Language
Tags

24 S09E11

Posted By: Tavaz
1080p (FullHD) / BluRay Remux IMDb
24 S09E11

24 S09E11
BluRay Remux | MKV | 1920x1080 | English | H264 @ 22618 kbps | DTS | 42 min 50 s | 7.89 GiB
Subtitles: Italian, Dutch, French, English
Genre: Drama

24 is an American television series produced for the Fox network and syndicated worldwide, starring Kiefer Sutherland as Counter Terrorist Unit agent Jack Bauer. Each 24-episode season covers 24 hours in the life of Bauer, using the real time method of narration.

4b79665e3b864244ac2cf13f8b197b0a.mkv (7.9 GB)



General
Unique ID : 195301936356225244734984341192073271040 (0x92EDC8E4E2DED2DEB45B12C49587D700)
Complete name : ./4b79665e3b864244ac2cf13f8b197b0a.mkv
Format : Matroska
Format version : Version 4 / Version 2
File size : 7.89 GiB
Duration : 42 min 50 s
Overall bit rate mode : Variable
Overall bit rate : 26.4 Mb/s
Movie name : 24 S09E11
Encoded date : UTC 2017-08-10 18:46:55
Writing application : mkvmerge v13.0.0 ('The Juggler') 64bit
Writing library : libebml v1.3.4 + libmatroska v1.4.5

Video
ID : 1
Format : AVC
Format/Info : Advanced Video Codec
Format profile : High@L4.1
Format settings : CABAC / 4 Ref Frames
Format settings, CABAC : Yes
Format settings, RefFrames : 4 frames
Codec ID : V_MPEG4/ISO/AVC
Duration : 42 min 50 s
Bit rate mode : Variable
Bit rate : 22.6 Mb/s
Maximum bit rate : 36.0 Mb/s
Width : 1 920 pixels
Height : 1 080 pixels
Display aspect ratio : 16:9
Frame rate mode : Constant
Frame rate : 23.976 (24000/1001) FPS
Color space : YUV
Chroma subsampling : 4:2:0
Bit depth : 8 bits
Scan type : Progressive
Bits/(Pixel*Frame) : 0.455
Stream size : 6.77 GiB (86%)
Default : Yes
Forced : No

Audio
ID : 2
Format : DTS
Format/Info : Digital Theater Systems
Format profile : MA / Core
Mode : 16
Format settings, Endianness : Big
Codec ID : A_DTS
Duration : 42 min 50 s
Bit rate mode : Variable / Constant
Bit rate : 3 568 kb/s / 1 509 kb/s
Channel(s) : 6 channels
Channel positions : Front: L C R, Side: L R, LFE
Sampling rate : 48.0 kHz
Frame rate : 93.750 FPS (512 SPF)
Bit depth : 24 bits
Compression mode : Lossless / Lossy
Stream size : 1.07 GiB (14%)
Title : DTS-HD MA 5.1
Language : English
Default : Yes
Forced : No

Text #1
ID : 3
Format : PGS
Codec ID : S_HDMV/PGS
Codec ID/Info : Picture based subtitle format used on BDs/HD-DVDs
Duration : 41 min 31 s
Bit rate : 46.6 kb/s
Count of elements : 1160
Stream size : 13.8 MiB (0%)
Title : English
Language : English
Default : No
Forced : No

Text #2
ID : 4
Format : PGS
Codec ID : S_HDMV/PGS
Codec ID/Info : Picture based subtitle format used on BDs/HD-DVDs
Duration : 42 min 35 s
Bit rate : 41.8 kb/s
Count of elements : 1194
Stream size : 12.7 MiB (0%)
Title : French
Language : French
Default : No
Forced : No

Text #3
ID : 5
Format : PGS
Codec ID : S_HDMV/PGS
Codec ID/Info : Picture based subtitle format used on BDs/HD-DVDs
Duration : 42 min 35 s
Bit rate : 42.5 kb/s
Count of elements : 1194
Stream size : 12.9 MiB (0%)
Title : Dutch
Language : Dutch
Default : No
Forced : No

Text #4
ID : 6
Format : PGS
Codec ID : S_HDMV/PGS
Codec ID/Info : Picture based subtitle format used on BDs/HD-DVDs
Duration : 42 min 35 s
Bit rate : 44.0 kb/s
Count of elements : 1194
Stream size : 13.4 MiB (0%)
Title : Italian
Language : Italian
Default : No
Forced : No

Menu
00:00:00.000 : en:00:00:00.000
00:02:20.182 : en:00:02:20.182
00:06:51.578 : en:00:06:51.578
00:12:02.055 : en:00:12:02.055
00:14:07.597 : en:00:14:07.597
00:18:16.762 : en:00:18:16.762
00:21:52.561 : en:00:21:52.561
00:24:47.736 : en:00:24:47.736
00:26:57.866 : en:00:26:57.866
00:30:55.312 : en:00:30:55.312
00:38:32.477 : en:00:38:32.477
00:42:13.656 : en:00:42:13.656





24 S09E11


24 S09E11


24 S09E11


24 S09E11


24 S09E11

All episodes