Tags
Language
Tags

24 S01E22

Posted By: Tavaz
1080p (FullHD) / BDRip IMDb
24 S01E22

24 S01E22
BluRay Remux | MKV | 1920x1080 | English | H264 @ 25736 kbps | AC-3 @ 224 kbps | 41 min 9 s | 7.48 GiB
Subtitles: Japanese, English
Genre: Drama

24 is an American television series produced for the Fox network and syndicated worldwide, starring Kiefer Sutherland as Counter Terrorist Unit agent Jack Bauer. Each 24-episode season covers 24 hours in the life of Bauer, using the real time method of narration.

77d69b81157e47f0bf5da48aa836f5dd.mkv (7.5 GB)



General
Unique ID : 135254819738881559833094908323350735879 (0x65C121788E3563284B75676570506C07)
Complete name : ./77d69b81157e47f0bf5da48aa836f5dd.mkv
Format : Matroska
Format version : Version 4 / Version 2
File size : 7.48 GiB
Duration : 41 min 9 s
Overall bit rate mode : Variable
Overall bit rate : 26.0 Mb/s
Encoded date : UTC 2017-08-08 02:39:00
Writing application : mkvmerge v14.0.0 ('Flow') 64bit
Writing library : libebml v1.3.4 + libmatroska v1.4.5

Video
ID : 1
Format : AVC
Format/Info : Advanced Video Codec
Format profile : High@L4.1
Format settings : CABAC / 2 Ref Frames
Format settings, CABAC : Yes
Format settings, RefFrames : 2 frames
Format settings, GOP : M=1, N=10
Codec ID : V_MPEG4/ISO/AVC
Duration : 41 min 9 s
Bit rate mode : Variable
Bit rate : 25.7 Mb/s
Width : 1 920 pixels
Height : 1 080 pixels
Display aspect ratio : 16:9
Frame rate mode : Constant
Frame rate : 23.976 (24000/1001) FPS
Color space : YUV
Chroma subsampling : 4:2:0
Bit depth : 8 bits
Scan type : Progressive
Bits/(Pixel*Frame) : 0.518
Stream size : 7.40 GiB (99%)
Title : MPEG-4 AVC Video / 25736 kbps / 1080p / 23.976 fps / 16:9 / High Profile 4.1
Language : English
Default : Yes
Forced : No

Audio
ID : 2
Format : AC-3
Format/Info : Audio Coding 3
Mode : Dolby Digital
Format settings, Endianness : Big
Codec ID : A_AC3
Duration : 41 min 9 s
Bit rate mode : Constant
Bit rate : 224 kb/s
Channel(s) : 2 channels
Channel positions : Front: L R
Sampling rate : 48.0 kHz
Frame rate : 31.250 FPS (1536 SPF)
Bit depth : 16 bits
Compression mode : Lossy
Stream size : 65.9 MiB (1%)
Title : Dolby Digital Audio / 2.0 / 48 kHz / 224 kbps / Dolby Surround
Language : English
Service kind : Complete Main
Default : Yes
Forced : No

Text #1
ID : 3
Format : PGS
Codec ID : S_HDMV/PGS
Codec ID/Info : Picture based subtitle format used on BDs/HD-DVDs
Duration : 39 min 20 s
Bit rate : 36.7 kb/s
Count of elements : 848
Stream size : 10.3 MiB (0%)
Title : SDH
Language : English
Default : No
Forced : No

Text #2
ID : 4
Format : PGS
Codec ID : S_HDMV/PGS
Codec ID/Info : Picture based subtitle format used on BDs/HD-DVDs
Duration : 39 min 19 s
Bit rate : 22.9 kb/s
Count of elements : 970
Stream size : 6.45 MiB (0%)
Language : Japanese
Default : No
Forced : No

Menu
00:00:00.000 : en:Chapter 1
00:09:28.151 : en:Chapter 2
00:15:47.363 : en:Chapter 3
00:24:03.275 : en:Chapter 4
00:31:41.149 : en:Chapter 5
00:40:31.304 : en:Chapter 6





24 S01E22


24 S01E22


24 S01E22


24 S01E22


24 S01E22

All episodes