Tags
Language
Tags

24 S02E19

Posted By: Tavaz
1080p (FullHD) / BDRip IMDb
24 S02E19

24 S02E19
BluRay Remux | MKV | 1920x1080 | English | H264 @ 24739 kbps | AC-3 @ 448 kbps | 44 min 1 s | 7.76 GiB
Subtitles: Japanese, English
Genre: Drama

24 is an American television series produced for the Fox network and syndicated worldwide, starring Kiefer Sutherland as Counter Terrorist Unit agent Jack Bauer. Each 24-episode season covers 24 hours in the life of Bauer, using the real time method of narration.

36f03433acb64353a9fe30224cfd563e.mkv (7.8 GB)



General
Unique ID : 167307039246061073229246491163997079671 (0x7DDE29E6DF363D73B898F0CDA3658877)
Complete name : ./36f03433acb64353a9fe30224cfd563e.mkv
Format : Matroska
Format version : Version 4 / Version 2
File size : 7.76 GiB
Duration : 44 min 1 s
Overall bit rate mode : Variable
Overall bit rate : 25.2 Mb/s
Encoded date : UTC 2017-08-08 04:21:43
Writing application : mkvmerge v14.0.0 ('Flow') 64bit
Writing library : libebml v1.3.4 + libmatroska v1.4.5

Video
ID : 1
Format : AVC
Format/Info : Advanced Video Codec
Format profile : High@L4.1
Format settings : CABAC / 2 Ref Frames
Format settings, CABAC : Yes
Format settings, RefFrames : 2 frames
Format settings, GOP : M=1, N=10
Codec ID : V_MPEG4/ISO/AVC
Duration : 44 min 1 s
Bit rate mode : Variable
Bit rate : 24.7 Mb/s
Width : 1 920 pixels
Height : 1 080 pixels
Display aspect ratio : 16:9
Frame rate mode : Constant
Frame rate : 23.976 (24000/1001) FPS
Color space : YUV
Chroma subsampling : 4:2:0
Bit depth : 8 bits
Scan type : Progressive
Bits/(Pixel*Frame) : 0.498
Stream size : 7.61 GiB (98%)
Title : MPEG-4 AVC Video / 24740 kbps / 1080p / 23.976 fps / 16:9 / High Profile 4.1
Language : English
Default : Yes
Forced : No

Audio
ID : 2
Format : AC-3
Format/Info : Audio Coding 3
Format settings, Endianness : Big
Codec ID : A_AC3
Duration : 44 min 1 s
Bit rate mode : Constant
Bit rate : 448 kb/s
Channel(s) : 6 channels
Channel positions : Front: L C R, Side: L R, LFE
Sampling rate : 48.0 kHz
Frame rate : 31.250 FPS (1536 SPF)
Bit depth : 16 bits
Compression mode : Lossy
Stream size : 141 MiB (2%)
Title : Dolby Digital Audio / 5.1 / 48 kHz / 448 kbps
Language : English
Service kind : Complete Main
Default : Yes
Forced : No

Text #1
ID : 3
Format : PGS
Codec ID : S_HDMV/PGS
Codec ID/Info : Picture based subtitle format used on BDs/HD-DVDs
Duration : 42 min 52 s
Bit rate : 36.3 kb/s
Count of elements : 952
Stream size : 11.1 MiB (0%)
Title : SDH
Language : English
Default : No
Forced : No

Text #2
ID : 4
Format : PGS
Codec ID : S_HDMV/PGS
Codec ID/Info : Picture based subtitle format used on BDs/HD-DVDs
Duration : 42 min 53 s
Bit rate : 23.3 kb/s
Count of elements : 1184
Stream size : 7.16 MiB (0%)
Language : Japanese
Default : No
Forced : No

Menu
00:00:00.000 : en:Chapter 1
00:01:40.017 : en:Chapter 2
00:09:15.638 : en:Chapter 3
00:16:55.306 : en:Chapter 4
00:26:32.132 : en:Chapter 5
00:36:20.136 : en:Chapter 6
00:43:23.518 : en:Chapter 7





24 S02E19


24 S02E19


24 S02E19


24 S02E19


24 S02E19

All episodes