Tags
Language
Tags

24 S02E20

Posted By: Tavaz
1080p (FullHD) / BDRip IMDb
24 S02E20

24 S02E20
BluRay Remux | MKV | 1920x1080 | English | H264 @ 24777 kbps | AC-3 @ 448 kbps | 43 min 7 s | 7.62 GiB
Subtitles: Japanese, English
Genre: Drama

24 is an American television series produced for the Fox network and syndicated worldwide, starring Kiefer Sutherland as Counter Terrorist Unit agent Jack Bauer. Each 24-episode season covers 24 hours in the life of Bauer, using the real time method of narration.

b61c4528cf5447b5883c1a6206105ac7.mkv (7.6 GB)



General
Unique ID : 259202977553425266698323510038434296924 (0xC300AD7823F2FEAB34C9043DE40E345C)
Complete name : ./b61c4528cf5447b5883c1a6206105ac7.mkv
Format : Matroska
Format version : Version 4 / Version 2
File size : 7.62 GiB
Duration : 43 min 7 s
Overall bit rate mode : Variable
Overall bit rate : 25.3 Mb/s
Encoded date : UTC 2017-08-08 04:23:42
Writing application : mkvmerge v14.0.0 ('Flow') 64bit
Writing library : libebml v1.3.4 + libmatroska v1.4.5

Video
ID : 1
Format : AVC
Format/Info : Advanced Video Codec
Format profile : High@L4.1
Format settings : CABAC / 2 Ref Frames
Format settings, CABAC : Yes
Format settings, RefFrames : 2 frames
Format settings, GOP : M=1, N=10
Codec ID : V_MPEG4/ISO/AVC
Duration : 43 min 7 s
Bit rate mode : Variable
Bit rate : 24.8 Mb/s
Width : 1 920 pixels
Height : 1 080 pixels
Display aspect ratio : 16:9
Frame rate mode : Constant
Frame rate : 23.976 (24000/1001) FPS
Color space : YUV
Chroma subsampling : 4:2:0
Bit depth : 8 bits
Scan type : Progressive
Bits/(Pixel*Frame) : 0.498
Stream size : 7.46 GiB (98%)
Title : MPEG-4 AVC Video / 24777 kbps / 1080p / 23.976 fps / 16:9 / High Profile 4.1
Language : English
Default : Yes
Forced : No

Audio
ID : 2
Format : AC-3
Format/Info : Audio Coding 3
Format settings, Endianness : Big
Codec ID : A_AC3
Duration : 43 min 7 s
Bit rate mode : Constant
Bit rate : 448 kb/s
Channel(s) : 6 channels
Channel positions : Front: L C R, Side: L R, LFE
Sampling rate : 48.0 kHz
Frame rate : 31.250 FPS (1536 SPF)
Bit depth : 16 bits
Compression mode : Lossy
Stream size : 138 MiB (2%)
Title : Dolby Digital Audio / 5.1 / 48 kHz / 448 kbps
Language : English
Service kind : Complete Main
Default : Yes
Forced : No

Text #1
ID : 3
Format : PGS
Codec ID : S_HDMV/PGS
Codec ID/Info : Picture based subtitle format used on BDs/HD-DVDs
Duration : 42 min 0 s
Bit rate : 34.5 kb/s
Count of elements : 888
Stream size : 10.4 MiB (0%)
Title : SDH
Language : English
Default : No
Forced : No

Text #2
ID : 4
Format : PGS
Codec ID : S_HDMV/PGS
Codec ID/Info : Picture based subtitle format used on BDs/HD-DVDs
Duration : 42 min 2 s
Bit rate : 20.8 kb/s
Count of elements : 1104
Stream size : 6.24 MiB (0%)
Language : Japanese
Default : No
Forced : No

Menu
00:00:00.000 : en:Chapter 1
00:01:37.681 : en:Chapter 2
00:14:10.725 : en:Chapter 3
00:23:27.740 : en:Chapter 4
00:29:10.457 : en:Chapter 5
00:34:51.423 : en:Chapter 6
00:42:29.881 : en:Chapter 7





24 S02E20


24 S02E20


24 S02E20


24 S02E20


24 S02E20

All episodes