Tags
Language
Tags

24 S03E03

Posted By: Tavaz
1080p (FullHD) / BDRip IMDb
24 S03E03

24 S03E03
BluRay Remux | MKV | 1920x1080 | English | H264 @ 23844 kbps | AC-3 @ 640 kbps | 43 min 24 s | 7.44 GiB
Subtitles: Japanese, English
Genre: Drama

24 is an American television series produced for the Fox network and syndicated worldwide, starring Kiefer Sutherland as Counter Terrorist Unit agent Jack Bauer. Each 24-episode season covers 24 hours in the life of Bauer, using the real time method of narration.

05af673c20274d86acac5e7e51f3f596.mkv (7.4 GB)



General
Unique ID : 290334055738691840592948836140888301675 (0xDA6C4E206C97FF1EB3E68BA51EF3206B)
Complete name : ./05af673c20274d86acac5e7e51f3f596.mkv
Format : Matroska
Format version : Version 4 / Version 2
File size : 7.44 GiB
Duration : 43 min 24 s
Overall bit rate mode : Variable
Overall bit rate : 24.6 Mb/s
Encoded date : UTC 2017-09-14 12:17:39
Writing application : mkvmerge v15.0.0 ('Duel with the Devil') 64-bit
Writing library : libebml v1.3.5 + libmatroska v1.4.5

Video
ID : 1
Format : AVC
Format/Info : Advanced Video Codec
Format profile : High@L4.1
Format settings : CABAC / 4 Ref Frames
Format settings, CABAC : Yes
Format settings, RefFrames : 4 frames
Codec ID : V_MPEG4/ISO/AVC
Duration : 43 min 24 s
Bit rate mode : Variable
Bit rate : 23.8 Mb/s
Maximum bit rate : 35.0 Mb/s
Width : 1 920 pixels
Height : 1 080 pixels
Display aspect ratio : 16:9
Frame rate mode : Constant
Frame rate : 23.976 (24000/1001) FPS
Color space : YUV
Chroma subsampling : 4:2:0
Bit depth : 8 bits
Scan type : Progressive
Bits/(Pixel*Frame) : 0.480
Stream size : 7.23 GiB (97%)
Title : MPEG-4 AVC Video / 24096 kbps / 1080p / 23.976 fps / 16:9 / High Profile 4.1
Language : English
Default : Yes
Forced : No

Audio
ID : 2
Format : AC-3
Format/Info : Audio Coding 3
Format settings, Endianness : Big
Codec ID : A_AC3
Duration : 43 min 24 s
Bit rate mode : Constant
Bit rate : 640 kb/s
Channel(s) : 6 channels
Channel positions : Front: L C R, Side: L R, LFE
Sampling rate : 48.0 kHz
Frame rate : 31.250 FPS (1536 SPF)
Bit depth : 16 bits
Compression mode : Lossy
Stream size : 199 MiB (3%)
Title : Dolby Digital Audio / 5.1 / 48 kHz / 640 kbps
Language : English
Service kind : Complete Main
Default : Yes
Forced : No

Text #1
ID : 3
Format : PGS
Codec ID : S_HDMV/PGS
Codec ID/Info : Picture based subtitle format used on BDs/HD-DVDs
Duration : 42 min 20 s
Bit rate : 44.8 kb/s
Count of elements : 1006
Stream size : 13.6 MiB (0%)
Language : English
Default : No
Forced : No

Text #2
ID : 4
Format : PGS
Codec ID : S_HDMV/PGS
Codec ID/Info : Picture based subtitle format used on BDs/HD-DVDs
Duration : 42 min 21 s
Bit rate : 27.9 kb/s
Count of elements : 1334
Stream size : 8.44 MiB (0%)
Language : Japanese
Default : No
Forced : No

Menu
00:00:00.000 : en:Chapter 1
00:04:15.630 : en:Chapter 2
00:07:15.268 : en:Chapter 3
00:13:31.811 : en:Chapter 4
00:18:19.515 : en:Chapter 5
00:20:03.619 : en:Chapter 6
00:22:14.291 : en:Chapter 7
00:28:05.559 : en:Chapter 8
00:30:06.638 : en:Chapter 9
00:36:09.167 : en:Chapter 10
00:37:45.013 : en:Chapter 11
00:40:31.387 : en:Chapter 12





24 S03E03


24 S03E03


24 S03E03


24 S03E03


24 S03E03

All episodes