Tags
Language
Tags

24 S03E09

Posted By: Tavaz
1080p (FullHD) / BDRip IMDb
24 S03E09

24 S03E09
BluRay Remux | MKV | 1920x1080 | English | H264 @ 23853 kbps | AC-3 @ 640 kbps | 44 min 11 s | 7.58 GiB
Subtitles: Japanese, English
Genre: Drama

24 is an American television series produced for the Fox network and syndicated worldwide, starring Kiefer Sutherland as Counter Terrorist Unit agent Jack Bauer. Each 24-episode season covers 24 hours in the life of Bauer, using the real time method of narration.

a32081d9840b4fe9bf43c1e8d2b4f64a.mkv (7.6 GB)



General
Unique ID : 307678758240910379298774308541882510116 (0xE778C5FBE42728C5727BD4A6F0BD2B24)
Complete name : ./a32081d9840b4fe9bf43c1e8d2b4f64a.mkv
Format : Matroska
Format version : Version 4 / Version 2
File size : 7.58 GiB
Duration : 44 min 11 s
Overall bit rate mode : Variable
Overall bit rate : 24.6 Mb/s
Encoded date : UTC 2017-09-14 12:29:28
Writing application : mkvmerge v15.0.0 ('Duel with the Devil') 64-bit
Writing library : libebml v1.3.5 + libmatroska v1.4.5

Video
ID : 1
Format : AVC
Format/Info : Advanced Video Codec
Format profile : High@L4.1
Format settings : CABAC / 4 Ref Frames
Format settings, CABAC : Yes
Format settings, RefFrames : 4 frames
Codec ID : V_MPEG4/ISO/AVC
Duration : 44 min 11 s
Bit rate mode : Variable
Bit rate : 23.9 Mb/s
Maximum bit rate : 35.0 Mb/s
Width : 1 920 pixels
Height : 1 080 pixels
Display aspect ratio : 16:9
Frame rate mode : Constant
Frame rate : 23.976 (24000/1001) FPS
Color space : YUV
Chroma subsampling : 4:2:0
Bit depth : 8 bits
Scan type : Progressive
Bits/(Pixel*Frame) : 0.480
Stream size : 7.36 GiB (97%)
Title : MPEG-4 AVC Video / 24096 kbps / 1080p / 23.976 fps / 16:9 / High Profile 4.1
Language : English
Default : Yes
Forced : No

Audio
ID : 2
Format : AC-3
Format/Info : Audio Coding 3
Format settings, Endianness : Big
Codec ID : A_AC3
Duration : 44 min 11 s
Bit rate mode : Constant
Bit rate : 640 kb/s
Channel(s) : 6 channels
Channel positions : Front: L C R, Side: L R, LFE
Sampling rate : 48.0 kHz
Frame rate : 31.250 FPS (1536 SPF)
Bit depth : 16 bits
Compression mode : Lossy
Stream size : 202 MiB (3%)
Title : Dolby Digital Audio / 5.1 / 48 kHz / 640 kbps
Language : English
Service kind : Complete Main
Default : Yes
Forced : No

Text #1
ID : 3
Format : PGS
Codec ID : S_HDMV/PGS
Codec ID/Info : Picture based subtitle format used on BDs/HD-DVDs
Duration : 42 min 59 s
Bit rate : 38.7 kb/s
Count of elements : 990
Stream size : 11.9 MiB (0%)
Language : English
Default : No
Forced : No

Text #2
ID : 4
Format : PGS
Codec ID : S_HDMV/PGS
Codec ID/Info : Picture based subtitle format used on BDs/HD-DVDs
Duration : 43 min 0 s
Bit rate : 24.9 kb/s
Count of elements : 1118
Stream size : 7.66 MiB (0%)
Language : Japanese
Default : No
Forced : No

Menu
00:00:00.000 : en:Chapter 1
00:05:00.592 : en:Chapter 2
00:12:57.235 : en:Chapter 3
00:14:34.123 : en:Chapter 4
00:17:36.806 : en:Chapter 5
00:21:40.216 : en:Chapter 6
00:27:29.857 : en:Chapter 7
00:29:09.456 : en:Chapter 8
00:30:23.488 : en:Chapter 9
00:35:28.209 : en:Chapter 10
00:38:05.742 : en:Chapter 11
00:40:38.311 : en:Chapter 12





24 S03E09


24 S03E09


24 S03E09


24 S03E09


24 S03E09

All episodes