Tags
Language
Tags

24 S03E12

Posted By: Tavaz
1080p (FullHD) / BDRip IMDb
24 S03E12

24 S03E12
BluRay Remux | MKV | 1920x1080 | English | H264 @ 23870 kbps | AC-3 @ 640 kbps | 44 min 3 s | 7.56 GiB
Subtitles: Japanese, English
Genre: Drama

24 is an American television series produced for the Fox network and syndicated worldwide, starring Kiefer Sutherland as Counter Terrorist Unit agent Jack Bauer. Each 24-episode season covers 24 hours in the life of Bauer, using the real time method of narration.

ea80362d60544f7987da43cddc04ef08.mkv (7.6 GB)



General
Unique ID : 197840480275342408005269987088521200539 (0x94D6B0C5BFF6EC2024B172EAFB33839B)
Complete name : ./ea80362d60544f7987da43cddc04ef08.mkv
Format : Matroska
Format version : Version 4 / Version 2
File size : 7.56 GiB
Duration : 44 min 3 s
Overall bit rate mode : Variable
Overall bit rate : 24.6 Mb/s
Encoded date : UTC 2017-09-14 12:35:22
Writing application : mkvmerge v15.0.0 ('Duel with the Devil') 64-bit
Writing library : libebml v1.3.5 + libmatroska v1.4.5

Video
ID : 1
Format : AVC
Format/Info : Advanced Video Codec
Format profile : High@L4.1
Format settings : CABAC / 4 Ref Frames
Format settings, CABAC : Yes
Format settings, RefFrames : 4 frames
Codec ID : V_MPEG4/ISO/AVC
Duration : 44 min 3 s
Bit rate mode : Variable
Bit rate : 23.9 Mb/s
Maximum bit rate : 35.0 Mb/s
Width : 1 920 pixels
Height : 1 080 pixels
Display aspect ratio : 16:9
Frame rate mode : Constant
Frame rate : 23.976 (24000/1001) FPS
Color space : YUV
Chroma subsampling : 4:2:0
Bit depth : 8 bits
Scan type : Progressive
Bits/(Pixel*Frame) : 0.480
Stream size : 7.34 GiB (97%)
Title : MPEG-4 AVC Video / 24097 kbps / 1080p / 23.976 fps / 16:9 / High Profile 4.1
Language : English
Default : Yes
Forced : No

Audio
ID : 2
Format : AC-3
Format/Info : Audio Coding 3
Format settings, Endianness : Big
Codec ID : A_AC3
Duration : 44 min 3 s
Bit rate mode : Constant
Bit rate : 640 kb/s
Channel(s) : 6 channels
Channel positions : Front: L C R, Side: L R, LFE
Sampling rate : 48.0 kHz
Frame rate : 31.250 FPS (1536 SPF)
Bit depth : 16 bits
Compression mode : Lossy
Stream size : 202 MiB (3%)
Title : Dolby Digital Audio / 5.1 / 48 kHz / 640 kbps
Language : English
Service kind : Complete Main
Default : Yes
Forced : No

Text #1
ID : 3
Format : PGS
Codec ID : S_HDMV/PGS
Codec ID/Info : Picture based subtitle format used on BDs/HD-DVDs
Duration : 42 min 25 s
Bit rate : 35.3 kb/s
Count of elements : 862
Stream size : 10.7 MiB (0%)
Language : English
Default : No
Forced : No

Text #2
ID : 4
Format : PGS
Codec ID : S_HDMV/PGS
Codec ID/Info : Picture based subtitle format used on BDs/HD-DVDs
Duration : 42 min 26 s
Bit rate : 22.7 kb/s
Count of elements : 1064
Stream size : 6.90 MiB (0%)
Language : Japanese
Default : No
Forced : No

Menu
00:00:00.000 : en:Chapter 1
00:04:56.379 : en:Chapter 2
00:06:31.349 : en:Chapter 3
00:09:49.422 : en:Chapter 4
00:12:25.370 : en:Chapter 5
00:13:58.588 : en:Chapter 6
00:17:33.219 : en:Chapter 7
00:21:47.097 : en:Chapter 8
00:25:10.092 : en:Chapter 9
00:32:53.805 : en:Chapter 10
00:36:31.356 : en:Chapter 11
00:39:25.071 : en:Chapter 12





24 S03E12


24 S03E12


24 S03E12


24 S03E12


24 S03E12

All episodes