Tags
Language
Tags

24 S03E24

Posted By: Tavaz
1080p (FullHD) / BDRip IMDb
24 S03E24

24 S03E24
BluRay Remux | MKV | 1920x1080 | English | H264 @ 31630 kbps | AC-3 @ 640 kbps | 41 min 39 s | 9.40 GiB
Subtitles: Japanese, English
Genre: Drama

24 is an American television series produced for the Fox network and syndicated worldwide, starring Kiefer Sutherland as Counter Terrorist Unit agent Jack Bauer. Each 24-episode season covers 24 hours in the life of Bauer, using the real time method of narration.

1ecf278661a3452bbc2d62cd81ac300c.mkv (9.4 GB)



General
Unique ID : 198799920559398352842850254729905651040 (0x958F78D4A5485EA3DE2E5BFD99873D60)
Complete name : ./1ecf278661a3452bbc2d62cd81ac300c.mkv
Format : Matroska
Format version : Version 4 / Version 2
File size : 9.40 GiB
Duration : 41 min 39 s
Overall bit rate mode : Variable
Overall bit rate : 32.3 Mb/s
Encoded date : UTC 2017-09-14 13:00:14
Writing application : mkvmerge v15.0.0 ('Duel with the Devil') 64-bit
Writing library : libebml v1.3.5 + libmatroska v1.4.5

Video
ID : 1
Format : AVC
Format/Info : Advanced Video Codec
Format profile : High@L4.1
Format settings : CABAC / 4 Ref Frames
Format settings, CABAC : Yes
Format settings, RefFrames : 4 frames
Codec ID : V_MPEG4/ISO/AVC
Duration : 41 min 39 s
Bit rate mode : Variable
Bit rate : 31.6 Mb/s
Maximum bit rate : 35.0 Mb/s
Width : 1 920 pixels
Height : 1 080 pixels
Display aspect ratio : 16:9
Frame rate mode : Constant
Frame rate : 23.976 (24000/1001) FPS
Color space : YUV
Chroma subsampling : 4:2:0
Bit depth : 8 bits
Scan type : Progressive
Bits/(Pixel*Frame) : 0.636
Stream size : 9.20 GiB (98%)
Title : MPEG-4 AVC Video / 32000 kbps / 1080p / 23.976 fps / 16:9 / High Profile 4.1
Language : English
Default : Yes
Forced : No

Audio
ID : 2
Format : AC-3
Format/Info : Audio Coding 3
Format settings, Endianness : Big
Codec ID : A_AC3
Duration : 41 min 39 s
Bit rate mode : Constant
Bit rate : 640 kb/s
Channel(s) : 6 channels
Channel positions : Front: L C R, Side: L R, LFE
Sampling rate : 48.0 kHz
Frame rate : 31.250 FPS (1536 SPF)
Bit depth : 16 bits
Compression mode : Lossy
Stream size : 191 MiB (2%)
Title : Dolby Digital Audio / 5.1 / 48 kHz / 640 kbps
Language : English
Service kind : Complete Main
Default : Yes
Forced : No

Text #1
ID : 3
Format : PGS
Codec ID : S_HDMV/PGS
Codec ID/Info : Picture based subtitle format used on BDs/HD-DVDs
Duration : 40 min 36 s
Bit rate : 27.9 kb/s
Count of elements : 678
Stream size : 8.11 MiB (0%)
Language : English
Default : No
Forced : No

Text #2
ID : 4
Format : PGS
Codec ID : S_HDMV/PGS
Codec ID/Info : Picture based subtitle format used on BDs/HD-DVDs
Duration : 40 min 37 s
Bit rate : 17.9 kb/s
Count of elements : 786
Stream size : 5.19 MiB (0%)
Language : Japanese
Default : No
Forced : No

Menu
00:00:00.000 : en:Chapter 1
00:03:23.578 : en:Chapter 2
00:08:49.696 : en:Chapter 3
00:12:41.803 : en:Chapter 4
00:14:58.856 : en:Chapter 5
00:17:35.638 : en:Chapter 6
00:19:12.902 : en:Chapter 7
00:22:47.324 : en:Chapter 8
00:25:36.702 : en:Chapter 9
00:31:54.079 : en:Chapter 10
00:33:53.406 : en:Chapter 11
00:36:56.881 : en:Chapter 12





24 S03E24


24 S03E24


24 S03E24


24 S03E24


24 S03E24

All episodes