Tags
Language
Tags

24 S04E06

Posted By: Tavaz
1080p (FullHD) / BDRip IMDb
24 S04E06

24 S04E06
BluRay Remux | MKV | 1920x1080 | English | H264 @ 23542 kbps | AC-3 @ 640 kbps | 43 min 58 s | 7.45 GiB
Subtitles: Japanese, English
Genre: Drama

24 is an American television series produced for the Fox network and syndicated worldwide, starring Kiefer Sutherland as Counter Terrorist Unit agent Jack Bauer. Each 24-episode season covers 24 hours in the life of Bauer, using the real time method of narration.

4f055a6e5b664bf1a7d3575eede73bdb.mkv (7.4 GB)



General
Unique ID : 78374688949572809297498438834922240966 (0x3AF66A812388A54192B70DF84070BBC6)
Complete name : ./4f055a6e5b664bf1a7d3575eede73bdb.mkv
Format : Matroska
Format version : Version 4 / Version 2
File size : 7.45 GiB
Duration : 43 min 58 s
Overall bit rate mode : Variable
Overall bit rate : 24.2 Mb/s
Encoded date : UTC 2017-09-14 15:39:01
Writing application : mkvmerge v15.0.0 ('Duel with the Devil') 64-bit
Writing library : libebml v1.3.5 + libmatroska v1.4.5

Video
ID : 1
Format : AVC
Format/Info : Advanced Video Codec
Format profile : High@L4.1
Format settings : CABAC / 4 Ref Frames
Format settings, CABAC : Yes
Format settings, RefFrames : 4 frames
Codec ID : V_MPEG4/ISO/AVC
Duration : 43 min 58 s
Bit rate mode : Variable
Bit rate : 23.5 Mb/s
Maximum bit rate : 38.0 Mb/s
Width : 1 920 pixels
Height : 1 080 pixels
Display aspect ratio : 16:9
Frame rate mode : Constant
Frame rate : 23.976 (24000/1001) FPS
Color space : YUV
Chroma subsampling : 4:2:0
Bit depth : 8 bits
Scan type : Progressive
Bits/(Pixel*Frame) : 0.474
Stream size : 7.23 GiB (97%)
Title : MPEG-4 AVC Video / 23994 kbps / 1080p / 23.976 fps / 16:9 / High Profile 4.1
Language : English
Default : Yes
Forced : No

Audio
ID : 2
Format : AC-3
Format/Info : Audio Coding 3
Format settings, Endianness : Big
Codec ID : A_AC3
Duration : 43 min 58 s
Bit rate mode : Constant
Bit rate : 640 kb/s
Channel(s) : 6 channels
Channel positions : Front: L C R, Side: L R, LFE
Sampling rate : 48.0 kHz
Frame rate : 31.250 FPS (1536 SPF)
Bit depth : 16 bits
Compression mode : Lossy
Stream size : 201 MiB (3%)
Title : Dolby Digital Audio / 5.1 / 48 kHz / 640 kbps
Language : English
Service kind : Complete Main
Default : Yes
Forced : No

Text #1
ID : 3
Format : PGS
Codec ID : S_HDMV/PGS
Codec ID/Info : Picture based subtitle format used on BDs/HD-DVDs
Duration : 42 min 40 s
Bit rate : 36.5 kb/s
Count of elements : 924
Stream size : 11.2 MiB (0%)
Language : English
Default : No
Forced : No

Text #2
ID : 4
Format : PGS
Codec ID : S_HDMV/PGS
Codec ID/Info : Picture based subtitle format used on BDs/HD-DVDs
Duration : 43 min 8 s
Bit rate : 25.6 kb/s
Count of elements : 1124
Stream size : 7.90 MiB (0%)
Language : Japanese
Default : No
Forced : No

Menu
00:00:00.000 : en:Chapter 1
00:02:09.588 : en:Chapter 2
00:07:00.962 : en:Chapter 3
00:12:54.691 : en:Chapter 4
00:16:40.833 : en:Chapter 5
00:18:53.132 : en:Chapter 6
00:22:59.169 : en:Chapter 7
00:25:54.803 : en:Chapter 8
00:29:05.577 : en:Chapter 9
00:33:02.022 : en:Chapter 10
00:38:09.787 : en:Chapter 11
00:40:22.587 : en:Chapter 12





24 S04E06


24 S04E06


24 S04E06


24 S04E06


24 S04E06

All episodes