Tags
Language
Tags

24 S04E13

Posted By: Tavaz
1080p (FullHD) / BDRip IMDb
24 S04E13

24 S04E13
BluRay Remux | MKV | 1920x1080 | English | H264 @ 23920 kbps | AC-3 @ 640 kbps | 44 min 0 s | 7.57 GiB
Subtitles: Japanese, English
Genre: Drama

24 is an American television series produced for the Fox network and syndicated worldwide, starring Kiefer Sutherland as Counter Terrorist Unit agent Jack Bauer. Each 24-episode season covers 24 hours in the life of Bauer, using the real time method of narration.

246a2e8899ee42c2aee718eed9ef33d6.mkv (7.6 GB)



General
Unique ID : 166440429904633066206922552423178370802 (0x7D3742C332F7A532118D3FE22EF0FEF2)
Complete name : ./246a2e8899ee42c2aee718eed9ef33d6.mkv
Format : Matroska
Format version : Version 4 / Version 2
File size : 7.57 GiB
Duration : 44 min 0 s
Overall bit rate mode : Variable
Overall bit rate : 24.6 Mb/s
Encoded date : UTC 2017-09-14 15:52:14
Writing application : mkvmerge v15.0.0 ('Duel with the Devil') 64-bit
Writing library : libebml v1.3.5 + libmatroska v1.4.5

Video
ID : 1
Format : AVC
Format/Info : Advanced Video Codec
Format profile : High@L4.1
Format settings : CABAC / 4 Ref Frames
Format settings, CABAC : Yes
Format settings, RefFrames : 4 frames
Codec ID : V_MPEG4/ISO/AVC
Duration : 44 min 0 s
Bit rate mode : Variable
Bit rate : 23.9 Mb/s
Maximum bit rate : 38.0 Mb/s
Width : 1 920 pixels
Height : 1 080 pixels
Display aspect ratio : 16:9
Frame rate mode : Constant
Frame rate : 23.976 (24000/1001) FPS
Color space : YUV
Chroma subsampling : 4:2:0
Bit depth : 8 bits
Scan type : Progressive
Bits/(Pixel*Frame) : 0.481
Stream size : 7.35 GiB (97%)
Title : MPEG-4 AVC Video / 23999 kbps / 1080p / 23.976 fps / 16:9 / High Profile 4.1
Language : English
Default : Yes
Forced : No

Audio
ID : 2
Format : AC-3
Format/Info : Audio Coding 3
Format settings, Endianness : Big
Codec ID : A_AC3
Duration : 44 min 0 s
Bit rate mode : Constant
Bit rate : 640 kb/s
Channel(s) : 6 channels
Channel positions : Front: L C R, Side: L R, LFE
Sampling rate : 48.0 kHz
Frame rate : 31.250 FPS (1536 SPF)
Bit depth : 16 bits
Compression mode : Lossy
Stream size : 201 MiB (3%)
Title : Dolby Digital Audio / 5.1 / 48 kHz / 640 kbps
Language : English
Service kind : Complete Main
Default : Yes
Forced : No

Text #1
ID : 3
Format : PGS
Codec ID : S_HDMV/PGS
Codec ID/Info : Picture based subtitle format used on BDs/HD-DVDs
Duration : 42 min 54 s
Bit rate : 37.5 kb/s
Count of elements : 950
Stream size : 11.5 MiB (0%)
Language : English
Default : No
Forced : No

Text #2
ID : 4
Format : PGS
Codec ID : S_HDMV/PGS
Codec ID/Info : Picture based subtitle format used on BDs/HD-DVDs
Duration : 42 min 54 s
Bit rate : 24.1 kb/s
Count of elements : 1030
Stream size : 7.39 MiB (0%)
Language : Japanese
Default : No
Forced : No

Menu
00:00:00.000 : en:Chapter 1
00:03:10.565 : en:Chapter 2
00:05:57.857 : en:Chapter 3
00:11:09.711 : en:Chapter 4
00:14:01.883 : en:Chapter 5
00:20:03.828 : en:Chapter 6
00:24:57.037 : en:Chapter 7
00:28:40.177 : en:Chapter 8
00:30:32.164 : en:Chapter 9
00:32:43.003 : en:Chapter 10
00:36:48.832 : en:Chapter 11
00:41:09.592 : en:Chapter 12





24 S04E13


24 S04E13


24 S04E13


24 S04E13


24 S04E13

All episodes