Tags
Language
Tags

24 S04E14

Posted By: Tavaz
1080p (FullHD) / BDRip IMDb
24 S04E14

24 S04E14
BluRay Remux | MKV | 1920x1080 | English | H264 @ 23912 kbps | AC-3 @ 640 kbps | 43 min 29 s | 7.48 GiB
Subtitles: Japanese, English
Genre: Drama

24 is an American television series produced for the Fox network and syndicated worldwide, starring Kiefer Sutherland as Counter Terrorist Unit agent Jack Bauer. Each 24-episode season covers 24 hours in the life of Bauer, using the real time method of narration.

fc9f000b7c3844b691484b6cd53caeea.mkv (7.5 GB)



General
Unique ID : 261705700185123907923679251747269798913 (0xC4E2AF38CAE5CD653E832636CE806C01)
Complete name : ./fc9f000b7c3844b691484b6cd53caeea.mkv
Format : Matroska
Format version : Version 4 / Version 2
File size : 7.48 GiB
Duration : 43 min 29 s
Overall bit rate mode : Variable
Overall bit rate : 24.6 Mb/s
Encoded date : UTC 2017-09-14 15:54:09
Writing application : mkvmerge v15.0.0 ('Duel with the Devil') 64-bit
Writing library : libebml v1.3.5 + libmatroska v1.4.5

Video
ID : 1
Format : AVC
Format/Info : Advanced Video Codec
Format profile : High@L4.1
Format settings : CABAC / 4 Ref Frames
Format settings, CABAC : Yes
Format settings, RefFrames : 4 frames
Codec ID : V_MPEG4/ISO/AVC
Duration : 43 min 29 s
Bit rate mode : Variable
Bit rate : 23.9 Mb/s
Maximum bit rate : 38.0 Mb/s
Width : 1 920 pixels
Height : 1 080 pixels
Display aspect ratio : 16:9
Frame rate mode : Constant
Frame rate : 23.976 (24000/1001) FPS
Color space : YUV
Chroma subsampling : 4:2:0
Bit depth : 8 bits
Scan type : Progressive
Bits/(Pixel*Frame) : 0.481
Stream size : 7.27 GiB (97%)
Title : MPEG-4 AVC Video / 23996 kbps / 1080p / 23.976 fps / 16:9 / High Profile 4.1
Language : English
Default : Yes
Forced : No

Audio
ID : 2
Format : AC-3
Format/Info : Audio Coding 3
Format settings, Endianness : Big
Codec ID : A_AC3
Duration : 43 min 29 s
Bit rate mode : Constant
Bit rate : 640 kb/s
Channel(s) : 6 channels
Channel positions : Front: L C R, Side: L R, LFE
Sampling rate : 48.0 kHz
Frame rate : 31.250 FPS (1536 SPF)
Bit depth : 16 bits
Compression mode : Lossy
Stream size : 199 MiB (3%)
Title : Dolby Digital Audio / 5.1 / 48 kHz / 640 kbps
Language : English
Service kind : Complete Main
Default : Yes
Forced : No

Text #1
ID : 3
Format : PGS
Codec ID : S_HDMV/PGS
Codec ID/Info : Picture based subtitle format used on BDs/HD-DVDs
Duration : 41 min 5 s
Bit rate : 36.3 kb/s
Count of elements : 894
Stream size : 10.7 MiB (0%)
Language : English
Default : No
Forced : No

Text #2
ID : 4
Format : PGS
Codec ID : S_HDMV/PGS
Codec ID/Info : Picture based subtitle format used on BDs/HD-DVDs
Duration : 41 min 6 s
Bit rate : 24.3 kb/s
Count of elements : 1034
Stream size : 7.14 MiB (0%)
Language : Japanese
Default : No
Forced : No

Menu
00:00:00.000 : en:Chapter 1
00:04:00.907 : en:Chapter 2
00:07:33.161 : en:Chapter 3
00:10:26.459 : en:Chapter 4
00:14:50.848 : en:Chapter 5
00:19:08.189 : en:Chapter 6
00:23:06.760 : en:Chapter 7
00:28:32.502 : en:Chapter 8
00:31:18.919 : en:Chapter 9
00:33:16.411 : en:Chapter 10
00:37:38.715 : en:Chapter 11
00:41:39.747 : en:Chapter 12





24 S04E14


24 S04E14


24 S04E14


24 S04E14


24 S04E14

All episodes