Tags
Language
Tags

24 S05E02

Posted By: Tavaz
1080p (FullHD) / BDRip IMDb
24 S05E02

24 S05E02
BluRay Remux | MKV | 1920x1080 | English | H264 @ 26906 kbps | AC-3 @ 448 kbps | 45 min 7 s | 8.64 GiB
Subtitles: Japanese, English
Genre: Drama

24 is an American television series produced for the Fox network and syndicated worldwide, starring Kiefer Sutherland as Counter Terrorist Unit agent Jack Bauer. Each 24-episode season covers 24 hours in the life of Bauer, using the real time method of narration.

8d0448a68a0a42789d9cbe79074ec7a6.mkv (8.6 GB)



General
Unique ID : 111353372186391963937509943245237478917 (0x53C5E11FB7C8FAB420E379E29BE16605)
Complete name : ./8d0448a68a0a42789d9cbe79074ec7a6.mkv
Format : Matroska
Format version : Version 4 / Version 2
File size : 8.64 GiB
Duration : 45 min 7 s
Overall bit rate mode : Variable
Overall bit rate : 27.4 Mb/s
Encoded date : UTC 2017-09-14 18:31:39
Writing application : mkvmerge v15.0.0 ('Duel with the Devil') 64-bit
Writing library : libebml v1.3.5 + libmatroska v1.4.5

Video
ID : 1
Format : AVC
Format/Info : Advanced Video Codec
Format profile : High@L4.1
Format settings : CABAC / 4 Ref Frames
Format settings, CABAC : Yes
Format settings, RefFrames : 4 frames
Codec ID : V_MPEG4/ISO/AVC
Duration : 45 min 7 s
Bit rate mode : Variable
Bit rate : 26.9 Mb/s
Maximum bit rate : 37.0 Mb/s
Width : 1 920 pixels
Height : 1 080 pixels
Display aspect ratio : 16:9
Frame rate mode : Constant
Frame rate : 23.976 (24000/1001) FPS
Color space : YUV
Chroma subsampling : 4:2:0
Bit depth : 8 bits
Scan type : Progressive
Bits/(Pixel*Frame) : 0.541
Stream size : 8.48 GiB (98%)
Title : MPEG-4 AVC Video / 26999 kbps / 1080p / 23.976 fps / 16:9 / High Profile 4.1
Language : English
Default : Yes
Forced : No

Audio
ID : 2
Format : AC-3
Format/Info : Audio Coding 3
Format settings, Endianness : Big
Codec ID : A_AC3
Duration : 45 min 7 s
Bit rate mode : Constant
Bit rate : 448 kb/s
Channel(s) : 6 channels
Channel positions : Front: L C R, Side: L R, LFE
Sampling rate : 48.0 kHz
Frame rate : 31.250 FPS (1536 SPF)
Bit depth : 16 bits
Compression mode : Lossy
Stream size : 145 MiB (2%)
Title : Dolby Digital Audio / 5.1 / 48 kHz / 448 kbps
Language : English
Service kind : Complete Main
Default : Yes
Forced : No

Text #1
ID : 3
Format : PGS
Codec ID : S_HDMV/PGS
Codec ID/Info : Picture based subtitle format used on BDs/HD-DVDs
Duration : 43 min 58 s
Bit rate : 41.2 kb/s
Count of elements : 1044
Stream size : 13.0 MiB (0%)
Language : English
Default : No
Forced : No

Text #2
ID : 4
Format : PGS
Codec ID : S_HDMV/PGS
Codec ID/Info : Picture based subtitle format used on BDs/HD-DVDs
Duration : 43 min 58 s
Bit rate : 26.0 kb/s
Count of elements : 1226
Stream size : 8.19 MiB (0%)
Language : Japanese
Default : No
Forced : No

Menu
00:00:00.000 : en:Chapter 1
00:04:34.900 : en:Chapter 2
00:09:06.087 : en:Chapter 3
00:10:51.776 : en:Chapter 4
00:14:27.533 : en:Chapter 5
00:19:48.771 : en:Chapter 6
00:24:21.877 : en:Chapter 7
00:29:44.950 : en:Chapter 8
00:33:11.323 : en:Chapter 9
00:35:24.956 : en:Chapter 10
00:37:14.482 : en:Chapter 11
00:40:30.261 : en:Chapter 12





24 S05E02


24 S05E02


24 S05E02


24 S05E02


24 S05E02

All episodes