Tags
Language
Tags

24 S05E07

Posted By: Tavaz
1080p (FullHD) / BDRip IMDb
24 S05E07

24 S05E07
BluRay Remux | MKV | 1920x1080 | English | H264 @ 26902 kbps | AC-3 @ 448 kbps | 43 min 15 s | 8.29 GiB
Subtitles: Japanese, English
Genre: Drama

24 is an American television series produced for the Fox network and syndicated worldwide, starring Kiefer Sutherland as Counter Terrorist Unit agent Jack Bauer. Each 24-episode season covers 24 hours in the life of Bauer, using the real time method of narration.

bb6e06353282445187da465cd59eeeb4.mkv (8.3 GB)



General
Unique ID : 217541161394082116533561469001877844245 (0xA3A8E75800ADE6A8666DB9A85F067115)
Complete name : ./bb6e06353282445187da465cd59eeeb4.mkv
Format : Matroska
Format version : Version 4 / Version 2
File size : 8.29 GiB
Duration : 43 min 15 s
Overall bit rate mode : Variable
Overall bit rate : 27.4 Mb/s
Encoded date : UTC 2017-09-14 18:42:24
Writing application : mkvmerge v15.0.0 ('Duel with the Devil') 64-bit
Writing library : libebml v1.3.5 + libmatroska v1.4.5

Video
ID : 1
Format : AVC
Format/Info : Advanced Video Codec
Format profile : High@L4.1
Format settings : CABAC / 4 Ref Frames
Format settings, CABAC : Yes
Format settings, RefFrames : 4 frames
Codec ID : V_MPEG4/ISO/AVC
Duration : 43 min 15 s
Bit rate mode : Variable
Bit rate : 26.9 Mb/s
Maximum bit rate : 37.0 Mb/s
Width : 1 920 pixels
Height : 1 080 pixels
Display aspect ratio : 16:9
Frame rate mode : Constant
Frame rate : 23.976 (24000/1001) FPS
Color space : YUV
Chroma subsampling : 4:2:0
Bit depth : 8 bits
Scan type : Progressive
Bits/(Pixel*Frame) : 0.541
Stream size : 8.13 GiB (98%)
Title : MPEG-4 AVC Video / 26991 kbps / 1080p / 23.976 fps / 16:9 / High Profile 4.1
Language : English
Default : Yes
Forced : No

Audio
ID : 2
Format : AC-3
Format/Info : Audio Coding 3
Format settings, Endianness : Big
Codec ID : A_AC3
Duration : 43 min 15 s
Bit rate mode : Constant
Bit rate : 448 kb/s
Channel(s) : 6 channels
Channel positions : Front: L C R, Side: L R, LFE
Sampling rate : 48.0 kHz
Frame rate : 31.250 FPS (1536 SPF)
Bit depth : 16 bits
Compression mode : Lossy
Stream size : 139 MiB (2%)
Title : Dolby Digital Audio / 5.1 / 48 kHz / 448 kbps
Language : English
Service kind : Complete Main
Default : Yes
Forced : No

Text #1
ID : 3
Format : PGS
Codec ID : S_HDMV/PGS
Codec ID/Info : Picture based subtitle format used on BDs/HD-DVDs
Duration : 42 min 15 s
Bit rate : 41.4 kb/s
Count of elements : 1006
Stream size : 12.5 MiB (0%)
Language : English
Default : No
Forced : No

Text #2
ID : 4
Format : PGS
Codec ID : S_HDMV/PGS
Codec ID/Info : Picture based subtitle format used on BDs/HD-DVDs
Duration : 42 min 15 s
Bit rate : 28.3 kb/s
Count of elements : 1226
Stream size : 8.54 MiB (0%)
Language : Japanese
Default : No
Forced : No

Menu
00:00:00.000 : en:Chapter 1
00:05:56.523 : en:Chapter 2
00:08:55.994 : en:Chapter 3
00:11:54.255 : en:Chapter 4
00:13:38.651 : en:Chapter 5
00:17:56.659 : en:Chapter 6
00:19:46.977 : en:Chapter 7
00:23:43.672 : en:Chapter 8
00:29:28.225 : en:Chapter 9
00:33:10.864 : en:Chapter 10
00:35:32.213 : en:Chapter 11
00:39:31.619 : en:Chapter 12





24 S05E07


24 S05E07


24 S05E07


24 S05E07


24 S05E07

All episodes