Tags
Language
Tags

24 S05E23

Posted By: Tavaz
1080p (FullHD) / BDRip IMDb
24 S05E23

24 S05E23
BluRay Remux | MKV | 1920x1080 | English | H264 @ 33811 kbps | AC-3 @ 448 kbps | 44 min 3 s | 10.6 GiB
Subtitles: Japanese, English
Genre: Drama

24 is an American television series produced for the Fox network and syndicated worldwide, starring Kiefer Sutherland as Counter Terrorist Unit agent Jack Bauer. Each 24-episode season covers 24 hours in the life of Bauer, using the real time method of narration.

c5977631b6884d0ebaee7c868315222c.mkv (10.6 GB)



General
Unique ID : 130741193313136477617859370249672099508 (0x625BD681B4F2098F555289C00E6286B4)
Complete name : ./c5977631b6884d0ebaee7c868315222c.mkv
Format : Matroska
Format version : Version 4 / Version 2
File size : 10.6 GiB
Duration : 44 min 3 s
Overall bit rate mode : Variable
Overall bit rate : 34.3 Mb/s
Encoded date : UTC 2017-09-14 19:17:26
Writing application : mkvmerge v15.0.0 ('Duel with the Devil') 64-bit
Writing library : libebml v1.3.5 + libmatroska v1.4.5

Video
ID : 1
Format : AVC
Format/Info : Advanced Video Codec
Format profile : High@L4.1
Format settings : CABAC / 4 Ref Frames
Format settings, CABAC : Yes
Format settings, RefFrames : 4 frames
Codec ID : V_MPEG4/ISO/AVC
Duration : 44 min 3 s
Bit rate mode : Variable
Bit rate : 33.8 Mb/s
Maximum bit rate : 37.0 Mb/s
Width : 1 920 pixels
Height : 1 080 pixels
Display aspect ratio : 16:9
Frame rate mode : Constant
Frame rate : 23.976 (24000/1001) FPS
Color space : YUV
Chroma subsampling : 4:2:0
Bit depth : 8 bits
Scan type : Progressive
Bits/(Pixel*Frame) : 0.680
Stream size : 10.4 GiB (99%)
Title : MPEG-4 AVC Video / 33888 kbps / 1080p / 23.976 fps / 16:9 / High Profile 4.1
Language : English
Default : Yes
Forced : No

Audio
ID : 2
Format : AC-3
Format/Info : Audio Coding 3
Format settings, Endianness : Big
Codec ID : A_AC3
Duration : 44 min 3 s
Bit rate mode : Constant
Bit rate : 448 kb/s
Channel(s) : 6 channels
Channel positions : Front: L C R, Side: L R, LFE
Sampling rate : 48.0 kHz
Frame rate : 31.250 FPS (1536 SPF)
Bit depth : 16 bits
Compression mode : Lossy
Stream size : 141 MiB (1%)
Title : Dolby Digital Audio / 5.1 / 48 kHz / 448 kbps
Language : English
Service kind : Complete Main
Default : Yes
Forced : No

Text #1
ID : 3
Format : PGS
Codec ID : S_HDMV/PGS
Codec ID/Info : Picture based subtitle format used on BDs/HD-DVDs
Duration : 43 min 0 s
Bit rate : 38.9 kb/s
Count of elements : 944
Stream size : 12.0 MiB (0%)
Language : English
Default : No
Forced : No

Text #2
ID : 4
Format : PGS
Codec ID : S_HDMV/PGS
Codec ID/Info : Picture based subtitle format used on BDs/HD-DVDs
Duration : 43 min 3 s
Bit rate : 26.0 kb/s
Count of elements : 1218
Stream size : 8.00 MiB (0%)
Language : Japanese
Default : No
Forced : No

Menu
00:00:00.000 : en:Chapter 1
00:04:51.791 : en:Chapter 2
00:10:19.911 : en:Chapter 3
00:13:36.899 : en:Chapter 4
00:17:29.382 : en:Chapter 5
00:19:58.280 : en:Chapter 6
00:22:05.533 : en:Chapter 7
00:26:54.321 : en:Chapter 8
00:30:11.560 : en:Chapter 9
00:32:07.467 : en:Chapter 10
00:34:54.009 : en:Chapter 11
00:36:29.854 : en:Chapter 12





24 S05E23


24 S05E23


24 S05E23


24 S05E23


24 S05E23

All episodes