Tags
Language
Tags

24 S05E24

Posted By: Tavaz
1080p (FullHD) / BDRip IMDb
24 S05E24

24 S05E24
BluRay Remux | MKV | 1920x1080 | English | H264 @ 33781 kbps | AC-3 @ 448 kbps | 43 min 28 s | 10.4 GiB
Subtitles: Japanese, English
Genre: Drama

24 is an American television series produced for the Fox network and syndicated worldwide, starring Kiefer Sutherland as Counter Terrorist Unit agent Jack Bauer. Each 24-episode season covers 24 hours in the life of Bauer, using the real time method of narration.

5cc4ade0ed7b48b3b7e01cd50ba6e495.mkv (10.4 GB)



General
Unique ID : 78860795864841852275580362591064187700 (0x3B54096CFF8B27BCC56F9F5B073A6334)
Complete name : ./5cc4ade0ed7b48b3b7e01cd50ba6e495.mkv
Format : Matroska
Format version : Version 4 / Version 2
File size : 10.4 GiB
Duration : 43 min 28 s
Overall bit rate mode : Variable
Overall bit rate : 34.3 Mb/s
Encoded date : UTC 2017-09-14 19:20:07
Writing application : mkvmerge v15.0.0 ('Duel with the Devil') 64-bit
Writing library : libebml v1.3.5 + libmatroska v1.4.5

Video
ID : 1
Format : AVC
Format/Info : Advanced Video Codec
Format profile : High@L4.1
Format settings : CABAC / 4 Ref Frames
Format settings, CABAC : Yes
Format settings, RefFrames : 4 frames
Codec ID : V_MPEG4/ISO/AVC
Duration : 43 min 28 s
Bit rate mode : Variable
Bit rate : 33.8 Mb/s
Maximum bit rate : 37.0 Mb/s
Width : 1 920 pixels
Height : 1 080 pixels
Display aspect ratio : 16:9
Frame rate mode : Constant
Frame rate : 23.976 (24000/1001) FPS
Color space : YUV
Chroma subsampling : 4:2:0
Bit depth : 8 bits
Scan type : Progressive
Bits/(Pixel*Frame) : 0.679
Stream size : 10.3 GiB (99%)
Title : MPEG-4 AVC Video / 33871 kbps / 1080p / 23.976 fps / 16:9 / High Profile 4.1
Language : English
Default : Yes
Forced : No

Audio
ID : 2
Format : AC-3
Format/Info : Audio Coding 3
Format settings, Endianness : Big
Codec ID : A_AC3
Duration : 43 min 28 s
Bit rate mode : Constant
Bit rate : 448 kb/s
Channel(s) : 6 channels
Channel positions : Front: L C R, Side: L R, LFE
Sampling rate : 48.0 kHz
Frame rate : 31.250 FPS (1536 SPF)
Bit depth : 16 bits
Compression mode : Lossy
Stream size : 139 MiB (1%)
Title : Dolby Digital Audio / 5.1 / 48 kHz / 448 kbps
Language : English
Service kind : Complete Main
Default : Yes
Forced : No

Text #1
ID : 3
Format : PGS
Codec ID : S_HDMV/PGS
Codec ID/Info : Picture based subtitle format used on BDs/HD-DVDs
Duration : 41 min 30 s
Bit rate : 32.8 kb/s
Count of elements : 794
Stream size : 9.72 MiB (0%)
Language : English
Default : No
Forced : No

Text #2
ID : 4
Format : PGS
Codec ID : S_HDMV/PGS
Codec ID/Info : Picture based subtitle format used on BDs/HD-DVDs
Duration : 41 min 33 s
Bit rate : 22.3 kb/s
Count of elements : 974
Stream size : 6.64 MiB (0%)
Language : Japanese
Default : No
Forced : No

Menu
00:00:00.000 : en:Chapter 1
00:06:02.737 : en:Chapter 2
00:11:12.297 : en:Chapter 3
00:14:27.366 : en:Chapter 4
00:17:00.353 : en:Chapter 5
00:20:43.784 : en:Chapter 6
00:24:04.526 : en:Chapter 7
00:26:54.238 : en:Chapter 8
00:29:33.522 : en:Chapter 9
00:33:55.367 : en:Chapter 10
00:36:16.674 : en:Chapter 11
00:39:17.814 : en:Chapter 12





24 S05E24


24 S05E24


24 S05E24


24 S05E24


24 S05E24

All episodes