Tags
Language
Tags

24 S06E09

Posted By: Tavaz
1080p (FullHD) / BDRip IMDb
24 S06E09

24 S06E09
BluRay Remux | MKV | 1920x1080 | English | H264 @ 26902 kbps | AC-3 @ 448 kbps | 43 min 5 s | 8.25 GiB
Subtitles: Japanese, English
Genre: Drama

24 is an American television series produced for the Fox network and syndicated worldwide, starring Kiefer Sutherland as Counter Terrorist Unit agent Jack Bauer. Each 24-episode season covers 24 hours in the life of Bauer, using the real time method of narration.

530b256dc771403d8053230c4b087523.mkv (8.3 GB)



General
Unique ID : 12055101333550308778715362322471785354 (0x911BA626882F717F338C15B7909138A)
Complete name : ./530b256dc771403d8053230c4b087523.mkv
Format : Matroska
Format version : Version 4 / Version 2
File size : 8.25 GiB
Duration : 43 min 5 s
Overall bit rate mode : Variable
Overall bit rate : 27.4 Mb/s
Encoded date : UTC 2017-09-14 21:35:33
Writing application : mkvmerge v15.0.0 ('Duel with the Devil') 64-bit
Writing library : libebml v1.3.5 + libmatroska v1.4.5

Video
ID : 1
Format : AVC
Format/Info : Advanced Video Codec
Format profile : High@L4.1
Format settings : CABAC / 4 Ref Frames
Format settings, CABAC : Yes
Format settings, RefFrames : 4 frames
Codec ID : V_MPEG4/ISO/AVC
Duration : 43 min 5 s
Bit rate mode : Variable
Bit rate : 26.9 Mb/s
Maximum bit rate : 37.0 Mb/s
Width : 1 920 pixels
Height : 1 080 pixels
Display aspect ratio : 16:9
Frame rate mode : Constant
Frame rate : 23.976 (24000/1001) FPS
Color space : YUV
Chroma subsampling : 4:2:0
Bit depth : 8 bits
Scan type : Progressive
Bits/(Pixel*Frame) : 0.541
Stream size : 8.10 GiB (98%)
Title : MPEG-4 AVC Video / 26999 kbps / 1080p / 23.976 fps / 16:9 / High Profile 4.1
Language : English
Default : Yes
Forced : No

Audio
ID : 2
Format : AC-3
Format/Info : Audio Coding 3
Format settings, Endianness : Big
Codec ID : A_AC3
Duration : 43 min 4 s
Bit rate mode : Constant
Bit rate : 448 kb/s
Channel(s) : 6 channels
Channel positions : Front: L C R, Side: L R, LFE
Sampling rate : 48.0 kHz
Frame rate : 31.250 FPS (1536 SPF)
Bit depth : 16 bits
Compression mode : Lossy
Stream size : 138 MiB (2%)
Title : Dolby Digital Audio / 5.1 / 48 kHz / 448 kbps
Language : English
Service kind : Complete Main
Default : Yes
Forced : No

Text #1
ID : 3
Format : PGS
Codec ID : S_HDMV/PGS
Codec ID/Info : Picture based subtitle format used on BDs/HD-DVDs
Duration : 42 min 4 s
Bit rate : 38.0 kb/s
Count of elements : 900
Stream size : 11.4 MiB (0%)
Language : English
Default : No
Forced : No

Text #2
ID : 4
Format : PGS
Codec ID : S_HDMV/PGS
Codec ID/Info : Picture based subtitle format used on BDs/HD-DVDs
Duration : 42 min 5 s
Bit rate : 26.4 kb/s
Count of elements : 1046
Stream size : 7.94 MiB (0%)
Language : Japanese
Default : No
Forced : No

Menu
00:00:00.000 : en:Chapter 1
00:02:23.727 : en:Chapter 2
00:04:08.415 : en:Chapter 3
00:07:05.467 : en:Chapter 4
00:10:15.156 : en:Chapter 5
00:12:48.476 : en:Chapter 6
00:16:12.346 : en:Chapter 7
00:19:41.972 : en:Chapter 8
00:23:07.469 : en:Chapter 9
00:30:09.558 : en:Chapter 10
00:31:45.028 : en:Chapter 11
00:36:25.308 : en:Chapter 12





24 S06E09


24 S06E09


24 S06E09


24 S06E09


24 S06E09

All episodes