Tags
Language
Tags

24 S06E14

Posted By: Tavaz
1080p (FullHD) / BDRip IMDb
24 S06E14

24 S06E14
BluRay Remux | MKV | 1920x1080 | English | H264 @ 26904 kbps | AC-3 @ 448 kbps | 43 min 5 s | 8.26 GiB
Subtitles: Japanese, English
Genre: Drama

24 is an American television series produced for the Fox network and syndicated worldwide, starring Kiefer Sutherland as Counter Terrorist Unit agent Jack Bauer. Each 24-episode season covers 24 hours in the life of Bauer, using the real time method of narration.

06235933bcad4039b0a65209904f39f2.mkv (8.3 GB)



General
Unique ID : 278589129882418721811302621705995450200 (0xD1965092F0C21AE74605D886539A7758)
Complete name : ./06235933bcad4039b0a65209904f39f2.mkv
Format : Matroska
Format version : Version 4 / Version 2
File size : 8.26 GiB
Duration : 43 min 5 s
Overall bit rate mode : Variable
Overall bit rate : 27.4 Mb/s
Encoded date : UTC 2017-09-14 21:47:38
Writing application : mkvmerge v15.0.0 ('Duel with the Devil') 64-bit
Writing library : libebml v1.3.5 + libmatroska v1.4.5

Video
ID : 1
Format : AVC
Format/Info : Advanced Video Codec
Format profile : High@L4.1
Format settings : CABAC / 4 Ref Frames
Format settings, CABAC : Yes
Format settings, RefFrames : 4 frames
Codec ID : V_MPEG4/ISO/AVC
Duration : 43 min 5 s
Bit rate mode : Variable
Bit rate : 26.9 Mb/s
Maximum bit rate : 37.0 Mb/s
Width : 1 920 pixels
Height : 1 080 pixels
Display aspect ratio : 16:9
Frame rate mode : Constant
Frame rate : 23.976 (24000/1001) FPS
Color space : YUV
Chroma subsampling : 4:2:0
Bit depth : 8 bits
Scan type : Progressive
Bits/(Pixel*Frame) : 0.541
Stream size : 8.10 GiB (98%)
Title : MPEG-4 AVC Video / 26999 kbps / 1080p / 23.976 fps / 16:9 / High Profile 4.1
Language : English
Default : Yes
Forced : No

Audio
ID : 2
Format : AC-3
Format/Info : Audio Coding 3
Format settings, Endianness : Big
Codec ID : A_AC3
Duration : 43 min 5 s
Bit rate mode : Constant
Bit rate : 448 kb/s
Channel(s) : 6 channels
Channel positions : Front: L C R, Side: L R, LFE
Sampling rate : 48.0 kHz
Frame rate : 31.250 FPS (1536 SPF)
Bit depth : 16 bits
Compression mode : Lossy
Stream size : 138 MiB (2%)
Title : Dolby Digital Audio / 5.1 / 48 kHz / 448 kbps
Language : English
Service kind : Complete Main
Default : Yes
Forced : No

Text #1
ID : 3
Format : PGS
Codec ID : S_HDMV/PGS
Codec ID/Info : Picture based subtitle format used on BDs/HD-DVDs
Duration : 42 min 3 s
Bit rate : 44.0 kb/s
Count of elements : 990
Stream size : 13.2 MiB (0%)
Language : English
Default : No
Forced : No

Text #2
ID : 4
Format : PGS
Codec ID : S_HDMV/PGS
Codec ID/Info : Picture based subtitle format used on BDs/HD-DVDs
Duration : 42 min 5 s
Bit rate : 30.9 kb/s
Count of elements : 1168
Stream size : 9.31 MiB (0%)
Language : Japanese
Default : No
Forced : No

Menu
00:00:00.000 : en:Chapter 1
00:02:02.247 : en:Chapter 2
00:05:37.837 : en:Chapter 3
00:10:54.737 : en:Chapter 4
00:15:14.497 : en:Chapter 5
00:20:03.369 : en:Chapter 6
00:22:55.291 : en:Chapter 7
00:26:26.877 : en:Chapter 8
00:28:03.974 : en:Chapter 9
00:31:13.997 : en:Chapter 10
00:33:43.772 : en:Chapter 11
00:39:06.344 : en:Chapter 12





24 S06E14


24 S06E14


24 S06E14


24 S06E14


24 S06E14

All episodes