Tags
Language
Tags

24 S06E17

Posted By: Tavaz
1080p (FullHD) / BDRip IMDb
24 S06E17

24 S06E17
BluRay Remux | MKV | 1920x1080 | English | H264 @ 26912 kbps | AC-3 @ 448 kbps | 44 min 4 s | 8.44 GiB
Subtitles: Japanese, English
Genre: Drama

24 is an American television series produced for the Fox network and syndicated worldwide, starring Kiefer Sutherland as Counter Terrorist Unit agent Jack Bauer. Each 24-episode season covers 24 hours in the life of Bauer, using the real time method of narration.

b50493ec83634a1999cd0734ccb1b03d.mkv (8.4 GB)



General
Unique ID : 144425852511251705668104902520795496889 (0x6CA7684BFD4E6A8B2DDD4DC3429F01B9)
Complete name : ./b50493ec83634a1999cd0734ccb1b03d.mkv
Format : Matroska
Format version : Version 4 / Version 2
File size : 8.44 GiB
Duration : 44 min 4 s
Overall bit rate mode : Variable
Overall bit rate : 27.4 Mb/s
Encoded date : UTC 2017-09-14 21:54:35
Writing application : mkvmerge v15.0.0 ('Duel with the Devil') 64-bit
Writing library : libebml v1.3.5 + libmatroska v1.4.5

Video
ID : 1
Format : AVC
Format/Info : Advanced Video Codec
Format profile : High@L4.1
Format settings : CABAC / 4 Ref Frames
Format settings, CABAC : Yes
Format settings, RefFrames : 4 frames
Codec ID : V_MPEG4/ISO/AVC
Duration : 44 min 4 s
Bit rate mode : Variable
Bit rate : 26.9 Mb/s
Maximum bit rate : 37.0 Mb/s
Width : 1 920 pixels
Height : 1 080 pixels
Display aspect ratio : 16:9
Frame rate mode : Constant
Frame rate : 23.976 (24000/1001) FPS
Color space : YUV
Chroma subsampling : 4:2:0
Bit depth : 8 bits
Scan type : Progressive
Bits/(Pixel*Frame) : 0.541
Stream size : 8.29 GiB (98%)
Title : MPEG-4 AVC Video / 26999 kbps / 1080p / 23.976 fps / 16:9 / High Profile 4.1
Language : English
Default : Yes
Forced : No

Audio
ID : 2
Format : AC-3
Format/Info : Audio Coding 3
Format settings, Endianness : Big
Codec ID : A_AC3
Duration : 44 min 4 s
Bit rate mode : Constant
Bit rate : 448 kb/s
Channel(s) : 6 channels
Channel positions : Front: L C R, Side: L R, LFE
Sampling rate : 48.0 kHz
Frame rate : 31.250 FPS (1536 SPF)
Bit depth : 16 bits
Compression mode : Lossy
Stream size : 141 MiB (2%)
Title : Dolby Digital Audio / 5.1 / 48 kHz / 448 kbps
Language : English
Service kind : Complete Main
Default : Yes
Forced : No

Text #1
ID : 3
Format : PGS
Codec ID : S_HDMV/PGS
Codec ID/Info : Picture based subtitle format used on BDs/HD-DVDs
Duration : 42 min 57 s
Bit rate : 40.0 kb/s
Count of elements : 906
Stream size : 12.3 MiB (0%)
Language : English
Default : No
Forced : No

Text #2
ID : 4
Format : PGS
Codec ID : S_HDMV/PGS
Codec ID/Info : Picture based subtitle format used on BDs/HD-DVDs
Duration : 43 min 1 s
Bit rate : 26.5 kb/s
Count of elements : 1098
Stream size : 8.14 MiB (0%)
Language : Japanese
Default : No
Forced : No

Menu
00:00:00.000 : en:Chapter 1
00:02:16.595 : en:Chapter 2
00:07:41.336 : en:Chapter 3
00:11:11.713 : en:Chapter 4
00:13:54.834 : en:Chapter 5
00:18:47.793 : en:Chapter 6
00:22:53.372 : en:Chapter 7
00:24:31.512 : en:Chapter 8
00:29:03.367 : en:Chapter 9
00:34:38.159 : en:Chapter 10
00:36:39.155 : en:Chapter 11
00:40:58.915 : en:Chapter 12





24 S06E17


24 S06E17


24 S06E17


24 S06E17


24 S06E17

All episodes