Tags
Language
Tags

24 S07E02

Posted By: Tavaz
1080p (FullHD) / BDRip IMDb
24 S07E02

24 S07E02
BluRay Remux | MKV | 1920x1080 | English | H264 @ 26910 kbps | DTS | 41 min 41 s | 8.60 GiB
Subtitles: Spanish, French, English
Genre: Drama

24 is an American television series produced for the Fox network and syndicated worldwide, starring Kiefer Sutherland as Counter Terrorist Unit agent Jack Bauer. Each 24-episode season covers 24 hours in the life of Bauer, using the real time method of narration.

0b4b3fe7a2c141618b60331f861a65fe.mkv (8.6 GB)



General
Unique ID : 107527386293741184331641159887901459417 (0x50E505749A8ADD740D958E09E0E483D9)
Complete name : ./0b4b3fe7a2c141618b60331f861a65fe.mkv
Format : Matroska
Format version : Version 4 / Version 2
File size : 8.60 GiB
Duration : 41 min 41 s
Overall bit rate mode : Variable
Overall bit rate : 29.5 Mb/s
Encoded date : UTC 2017-03-12 14:07:21
Writing application : mkvmerge v9.9.0 ('Pick Up') 64bit
Writing library : libebml v1.3.4 + libmatroska v1.4.5

Video
ID : 1
Format : AVC
Format/Info : Advanced Video Codec
Format profile : High@L4.1
Format settings : CABAC / 4 Ref Frames
Format settings, CABAC : Yes
Format settings, RefFrames : 4 frames
Codec ID : V_MPEG4/ISO/AVC
Duration : 41 min 41 s
Bit rate mode : Variable
Bit rate : 26.9 Mb/s
Maximum bit rate : 37.0 Mb/s
Width : 1 920 pixels
Height : 1 080 pixels
Display aspect ratio : 16:9
Frame rate mode : Constant
Frame rate : 23.976 (24000/1001) FPS
Color space : YUV
Chroma subsampling : 4:2:0
Bit depth : 8 bits
Scan type : Progressive
Bits/(Pixel*Frame) : 0.541
Stream size : 7.84 GiB (91%)
Title : MPEG-4 AVC Video / 26978 kbps / 1080p / 23.976 fps / 16:9 / High Profile 4.1
Default : Yes
Forced : No
Color range : Limited
Color primaries : BT.709
Transfer characteristics : BT.709
Matrix coefficients : BT.709

Audio
ID : 2
Format : DTS
Format/Info : Digital Theater Systems
Format profile : MA / Core
Mode : 16
Format settings, Endianness : Big
Codec ID : A_DTS
Duration : 41 min 41 s
Bit rate mode : Variable / Constant
Bit rate : 2 392 kb/s / 1 509 kb/s
Channel(s) : 6 channels
Channel positions : Front: L C R, Side: L R, LFE
Sampling rate : 48.0 kHz
Frame rate : 93.750 FPS (512 SPF)
Bit depth : 24 bits
Compression mode : Lossless / Lossy
Stream size : 713 MiB (8%)
Title : DTS-HD Master Audio / 5.1 / 48 kHz / 2392 kbps / 24-bit
Language : English
Default : Yes
Forced : No

Text #1
ID : 3
Format : PGS
Codec ID : S_HDMV/PGS
Codec ID/Info : Picture based subtitle format used on BDs/HD-DVDs
Duration : 40 min 46 s
Bit rate : 81.9 kb/s
Count of elements : 1142
Stream size : 23.9 MiB (0%)
Title : SDH
Language : English
Default : No
Forced : No

Text #2
ID : 4
Format : PGS
Codec ID : S_HDMV/PGS
Codec ID/Info : Picture based subtitle format used on BDs/HD-DVDs
Duration : 40 min 38 s
Bit rate : 73.9 kb/s
Count of elements : 1098
Stream size : 21.5 MiB (0%)
Language : French
Default : No
Forced : No

Text #3
ID : 5
Format : PGS
Codec ID : S_HDMV/PGS
Codec ID/Info : Picture based subtitle format used on BDs/HD-DVDs
Duration : 40 min 38 s
Bit rate : 78.2 kb/s
Count of elements : 1090
Stream size : 22.7 MiB (0%)
Language : Spanish
Default : No
Forced : No

Menu
00:00:00.000 : en:Chapter 1
00:02:10.714 : en:Chapter 2
00:06:44.321 : en:Chapter 3
00:10:38.471 : en:Chapter 4
00:13:42.363 : en:Chapter 5
00:17:27.838 : en:Chapter 6
00:19:04.852 : en:Chapter 7
00:22:26.011 : en:Chapter 8
00:26:17.951 : en:Chapter 9
00:30:49.473 : en:Chapter 10
00:34:02.582 : en:Chapter 11
00:38:41.361 : en:Chapter 12





24 S07E02


24 S07E02


24 S07E02


24 S07E02


24 S07E02

All episodes