Tags
Language
Tags

24 S07E06

Posted By: Tavaz
1080p (FullHD) / BDRip IMDb
24 S07E06

24 S07E06
BluRay Remux | MKV | 1920x1080 | English | H264 @ 28909 kbps | DTS | 43 min 43 s | 9.61 GiB
Subtitles: Spanish, French, English
Genre: Drama

24 is an American television series produced for the Fox network and syndicated worldwide, starring Kiefer Sutherland as Counter Terrorist Unit agent Jack Bauer. Each 24-episode season covers 24 hours in the life of Bauer, using the real time method of narration.

fc5cb6ac435c4d7f80b1096f40101919.mkv (9.6 GB)



General
Unique ID : 225058864750186133147552330047401692967 (0xA950C2BC65C3F931967B7138E3B30F27)
Complete name : ./fc5cb6ac435c4d7f80b1096f40101919.mkv
Format : Matroska
Format version : Version 4 / Version 2
File size : 9.61 GiB
Duration : 43 min 43 s
Overall bit rate mode : Variable
Overall bit rate : 31.5 Mb/s
Encoded date : UTC 2017-03-12 14:21:29
Writing application : mkvmerge v9.9.0 ('Pick Up') 64bit
Writing library : libebml v1.3.4 + libmatroska v1.4.5

Video
ID : 1
Format : AVC
Format/Info : Advanced Video Codec
Format profile : High@L4.1
Format settings : CABAC / 4 Ref Frames
Format settings, CABAC : Yes
Format settings, RefFrames : 4 frames
Codec ID : V_MPEG4/ISO/AVC
Duration : 43 min 43 s
Bit rate mode : Variable
Bit rate : 28.9 Mb/s
Maximum bit rate : 37.0 Mb/s
Width : 1 920 pixels
Height : 1 080 pixels
Display aspect ratio : 16:9
Frame rate mode : Constant
Frame rate : 23.976 (24000/1001) FPS
Color space : YUV
Chroma subsampling : 4:2:0
Bit depth : 8 bits
Scan type : Progressive
Bits/(Pixel*Frame) : 0.581
Stream size : 8.83 GiB (92%)
Title : MPEG-4 AVC Video / 28991 kbps / 1080p / 23.976 fps / 16:9 / High Profile 4.1
Default : Yes
Forced : No
Color range : Limited
Color primaries : BT.709
Transfer characteristics : BT.709
Matrix coefficients : BT.709

Audio
ID : 2
Format : DTS
Format/Info : Digital Theater Systems
Format profile : MA / Core
Mode : 16
Format settings, Endianness : Big
Codec ID : A_DTS
Duration : 43 min 43 s
Bit rate mode : Variable / Constant
Bit rate : 2 389 kb/s / 1 509 kb/s
Channel(s) : 6 channels
Channel positions : Front: L C R, Side: L R, LFE
Sampling rate : 48.0 kHz
Frame rate : 93.750 FPS (512 SPF)
Bit depth : 24 bits
Compression mode : Lossless / Lossy
Stream size : 747 MiB (8%)
Title : DTS-HD Master Audio / 5.1 / 48 kHz / 2389 kbps / 24-bit
Language : English
Default : Yes
Forced : No

Text #1
ID : 3
Format : PGS
Codec ID : S_HDMV/PGS
Codec ID/Info : Picture based subtitle format used on BDs/HD-DVDs
Duration : 42 min 49 s
Bit rate : 61.8 kb/s
Count of elements : 988
Stream size : 18.9 MiB (0%)
Title : SDH
Language : English
Default : No
Forced : No

Text #2
ID : 4
Format : PGS
Codec ID : S_HDMV/PGS
Codec ID/Info : Picture based subtitle format used on BDs/HD-DVDs
Duration : 42 min 45 s
Bit rate : 58.5 kb/s
Count of elements : 910
Stream size : 17.9 MiB (0%)
Language : French
Default : No
Forced : No

Text #3
ID : 5
Format : PGS
Codec ID : S_HDMV/PGS
Codec ID/Info : Picture based subtitle format used on BDs/HD-DVDs
Duration : 42 min 44 s
Bit rate : 59.5 kb/s
Count of elements : 916
Stream size : 18.2 MiB (0%)
Language : Spanish
Default : No
Forced : No

Menu
00:00:00.000 : en:Chapter 1
00:03:58.822 : en:Chapter 2
00:08:44.315 : en:Chapter 3
00:10:13.446 : en:Chapter 4
00:13:52.457 : en:Chapter 5
00:15:55.580 : en:Chapter 6
00:19:23.329 : en:Chapter 7
00:22:38.732 : en:Chapter 8
00:27:50.669 : en:Chapter 9
00:30:37.210 : en:Chapter 10
00:35:43.391 : en:Chapter 11
00:39:46.843 : en:Chapter 12





24 S07E06


24 S07E06


24 S07E06


24 S07E06


24 S07E06

All episodes