Tags
Language
Tags

24 S07E07

Posted By: Tavaz
1080p (FullHD) / BDRip IMDb
24 S07E07

24 S07E07
BluRay Remux | MKV | 1920x1080 | English | H264 @ 28920 kbps | DTS | 43 min 18 s | 10.1 GiB
Subtitles: Spanish, French, English
Genre: Drama

24 is an American television series produced for the Fox network and syndicated worldwide, starring Kiefer Sutherland as Counter Terrorist Unit agent Jack Bauer. Each 24-episode season covers 24 hours in the life of Bauer, using the real time method of narration.

236876f0727e4f32a458f3fb6cbc0796.mkv (10.1 GB)



General
Unique ID : 14536022329370714733259088496979291280 (0xAEF893BBA9D5B240961018D116B2C90)
Complete name : ./236876f0727e4f32a458f3fb6cbc0796.mkv
Format : Matroska
Format version : Version 4 / Version 2
File size : 10.1 GiB
Duration : 43 min 18 s
Overall bit rate mode : Variable
Overall bit rate : 33.3 Mb/s
Encoded date : UTC 2017-03-12 14:25:35
Writing application : mkvmerge v9.9.0 ('Pick Up') 64bit
Writing library : libebml v1.3.4 + libmatroska v1.4.5

Video
ID : 1
Format : AVC
Format/Info : Advanced Video Codec
Format profile : High@L4.1
Format settings : CABAC / 4 Ref Frames
Format settings, CABAC : Yes
Format settings, RefFrames : 4 frames
Codec ID : V_MPEG4/ISO/AVC
Duration : 43 min 18 s
Bit rate mode : Variable
Bit rate : 28.9 Mb/s
Maximum bit rate : 37.0 Mb/s
Width : 1 920 pixels
Height : 1 080 pixels
Display aspect ratio : 16:9
Frame rate mode : Constant
Frame rate : 23.976 (24000/1001) FPS
Color space : YUV
Chroma subsampling : 4:2:0
Bit depth : 8 bits
Scan type : Progressive
Bits/(Pixel*Frame) : 0.582
Stream size : 8.75 GiB (87%)
Title : MPEG-4 AVC Video / 28998 kbps / 1080p / 23.976 fps / 16:9 / High Profile 4.1
Default : Yes
Forced : No
Color range : Limited
Color primaries : BT.709
Transfer characteristics : BT.709
Matrix coefficients : BT.709

Audio
ID : 2
Format : DTS
Format/Info : Digital Theater Systems
Format profile : MA / Core
Mode : 16
Format settings, Endianness : Big
Codec ID : A_DTS
Duration : 43 min 18 s
Bit rate mode : Variable / Constant
Bit rate : 4 185 kb/s / 1 509 kb/s
Channel(s) : 6 channels
Channel positions : Front: L C R, Side: L R, LFE
Sampling rate : 48.0 kHz
Frame rate : 93.750 FPS (512 SPF)
Bit depth : 24 bits
Compression mode : Lossless / Lossy
Stream size : 1.27 GiB (13%)
Title : DTS-HD Master Audio / 5.1 / 48 kHz / 4185 kbps / 24-bit
Language : English
Default : Yes
Forced : No

Text #1
ID : 3
Format : PGS
Codec ID : S_HDMV/PGS
Codec ID/Info : Picture based subtitle format used on BDs/HD-DVDs
Duration : 42 min 24 s
Bit rate : 84.2 kb/s
Count of elements : 1228
Stream size : 25.5 MiB (0%)
Title : SDH
Language : English
Default : No
Forced : No

Text #2
ID : 4
Format : PGS
Codec ID : S_HDMV/PGS
Codec ID/Info : Picture based subtitle format used on BDs/HD-DVDs
Duration : 42 min 15 s
Bit rate : 77.8 kb/s
Count of elements : 1191
Stream size : 23.5 MiB (0%)
Language : French
Default : No
Forced : No

Text #3
ID : 5
Format : PGS
Codec ID : S_HDMV/PGS
Codec ID/Info : Picture based subtitle format used on BDs/HD-DVDs
Duration : 42 min 15 s
Bit rate : 81.8 kb/s
Count of elements : 1190
Stream size : 24.7 MiB (0%)
Language : Spanish
Default : No
Forced : No

Menu
00:00:00.000 : en:Chapter 1
00:02:38.658 : en:Chapter 2
00:05:10.810 : en:Chapter 3
00:11:49.584 : en:Chapter 4
00:14:38.920 : en:Chapter 5
00:18:13.551 : en:Chapter 6
00:20:46.787 : en:Chapter 7
00:22:03.447 : en:Chapter 8
00:24:04.360 : en:Chapter 9
00:29:47.035 : en:Chapter 10
00:35:21.036 : en:Chapter 11
00:39:18.064 : en:Chapter 12





24 S07E07


24 S07E07


24 S07E07


24 S07E07


24 S07E07

All episodes