Tags
Language
Tags

24 S07E08

Posted By: Tavaz
1080p (FullHD) / BDRip IMDb
24 S07E08

24 S07E08
BluRay Remux | MKV | 1920x1080 | English | H264 @ 28910 kbps | DTS | 43 min 54 s | 9.67 GiB
Subtitles: Spanish, French, English
Genre: Drama

24 is an American television series produced for the Fox network and syndicated worldwide, starring Kiefer Sutherland as Counter Terrorist Unit agent Jack Bauer. Each 24-episode season covers 24 hours in the life of Bauer, using the real time method of narration.

668226251fb44ad49c08025c327b7c3e.mkv (9.7 GB)



General
Unique ID : 308007581819324837658841177468640616936 (0xE7B81A3CF15DE8D23911A8EBCF8AE1E8)
Complete name : ./668226251fb44ad49c08025c327b7c3e.mkv
Format : Matroska
Format version : Version 4 / Version 2
File size : 9.67 GiB
Duration : 43 min 54 s
Overall bit rate mode : Variable
Overall bit rate : 31.5 Mb/s
Encoded date : UTC 2017-03-12 14:29:22
Writing application : mkvmerge v9.9.0 ('Pick Up') 64bit
Writing library : libebml v1.3.4 + libmatroska v1.4.5

Video
ID : 1
Format : AVC
Format/Info : Advanced Video Codec
Format profile : High@L4.1
Format settings : CABAC / 4 Ref Frames
Format settings, CABAC : Yes
Format settings, RefFrames : 4 frames
Codec ID : V_MPEG4/ISO/AVC
Duration : 43 min 54 s
Bit rate mode : Variable
Bit rate : 28.9 Mb/s
Maximum bit rate : 37.0 Mb/s
Width : 1 920 pixels
Height : 1 080 pixels
Display aspect ratio : 16:9
Frame rate mode : Constant
Frame rate : 23.976 (24000/1001) FPS
Color space : YUV
Chroma subsampling : 4:2:0
Bit depth : 8 bits
Scan type : Progressive
Bits/(Pixel*Frame) : 0.582
Stream size : 8.87 GiB (92%)
Title : MPEG-4 AVC Video / 28987 kbps / 1080p / 23.976 fps / 16:9 / High Profile 4.1
Default : Yes
Forced : No
Color range : Limited
Color primaries : BT.709
Transfer characteristics : BT.709
Matrix coefficients : BT.709

Audio
ID : 2
Format : DTS
Format/Info : Digital Theater Systems
Format profile : MA / Core
Mode : 16
Format settings, Endianness : Big
Codec ID : A_DTS
Duration : 43 min 54 s
Bit rate mode : Variable / Constant
Bit rate : 2 394 kb/s / 1 509 kb/s
Channel(s) : 6 channels
Channel positions : Front: L C R, Side: L R, LFE
Sampling rate : 48.0 kHz
Frame rate : 93.750 FPS (512 SPF)
Bit depth : 24 bits
Compression mode : Lossless / Lossy
Stream size : 752 MiB (8%)
Title : DTS-HD Master Audio / 5.1 / 48 kHz / 2394 kbps / 24-bit
Language : English
Default : Yes
Forced : No

Text #1
ID : 3
Format : PGS
Codec ID : S_HDMV/PGS
Codec ID/Info : Picture based subtitle format used on BDs/HD-DVDs
Duration : 42 min 59 s
Bit rate : 81.8 kb/s
Count of elements : 1238
Stream size : 25.2 MiB (0%)
Title : SDH
Language : English
Default : No
Forced : No

Text #2
ID : 4
Format : PGS
Codec ID : S_HDMV/PGS
Codec ID/Info : Picture based subtitle format used on BDs/HD-DVDs
Duration : 42 min 51 s
Bit rate : 75.1 kb/s
Count of elements : 1182
Stream size : 23.0 MiB (0%)
Language : French
Default : No
Forced : No

Text #3
ID : 5
Format : PGS
Codec ID : S_HDMV/PGS
Codec ID/Info : Picture based subtitle format used on BDs/HD-DVDs
Duration : 42 min 51 s
Bit rate : 76.4 kb/s
Count of elements : 1180
Stream size : 23.4 MiB (0%)
Language : Spanish
Default : No
Forced : No

Menu
00:00:00.000 : en:Chapter 1
00:02:07.210 : en:Chapter 2
00:06:16.251 : en:Chapter 3
00:14:13.019 : en:Chapter 4
00:17:08.861 : en:Chapter 5
00:18:44.248 : en:Chapter 6
00:22:07.201 : en:Chapter 7
00:26:31.965 : en:Chapter 8
00:27:27.896 : en:Chapter 9
00:32:12.764 : en:Chapter 10
00:34:34.364 : en:Chapter 11
00:37:49.225 : en:Chapter 12





24 S07E08


24 S07E08


24 S07E08


24 S07E08


24 S07E08

All episodes