Tags
Language
Tags

24 S07E09

Posted By: Tavaz
1080p (FullHD) / BDRip IMDb
24 S07E09

24 S07E09
BluRay Remux | MKV | 1920x1080 | English / English | H264 @ 27963 kbps | DTS | 44 min 3 s | 9.50 GiB
Subtitles: Spanish, French, English
Genre: Drama

24 is an American television series produced for the Fox network and syndicated worldwide, starring Kiefer Sutherland as Counter Terrorist Unit agent Jack Bauer. Each 24-episode season covers 24 hours in the life of Bauer, using the real time method of narration.

0825e36f8d1c4881a76c96aaa3a2c507.mkv (9.5 GB)



General
Unique ID : 20061228674209305734661687860890476580 (0xF17A6F03042D118A7A89B10FAE8A024)
Complete name : ./0825e36f8d1c4881a76c96aaa3a2c507.mkv
Format : Matroska
Format version : Version 4 / Version 2
File size : 9.50 GiB
Duration : 44 min 3 s
Overall bit rate mode : Variable
Overall bit rate : 30.9 Mb/s
Encoded date : UTC 2017-03-12 14:33:05
Writing application : mkvmerge v9.9.0 ('Pick Up') 64bit
Writing library : libebml v1.3.4 + libmatroska v1.4.5

Video
ID : 1
Format : AVC
Format/Info : Advanced Video Codec
Format profile : High@L4.1
Format settings : CABAC / 4 Ref Frames
Format settings, CABAC : Yes
Format settings, RefFrames : 4 frames
Codec ID : V_MPEG4/ISO/AVC
Duration : 44 min 3 s
Bit rate mode : Variable
Bit rate : 28.0 Mb/s
Maximum bit rate : 37.0 Mb/s
Width : 1 920 pixels
Height : 1 080 pixels
Display aspect ratio : 16:9
Frame rate mode : Constant
Frame rate : 23.976 (24000/1001) FPS
Color space : YUV
Chroma subsampling : 4:2:0
Bit depth : 8 bits
Scan type : Progressive
Bits/(Pixel*Frame) : 0.562
Stream size : 8.61 GiB (91%)
Title : MPEG-4 AVC Video / 28030 kbps / 1080p / 23.976 fps / 16:9 / High Profile 4.1
Default : Yes
Forced : No
Color range : Limited
Color primaries : BT.709
Transfer characteristics : BT.709
Matrix coefficients : BT.709

Audio #1
ID : 2
Format : DTS
Format/Info : Digital Theater Systems
Format profile : MA / Core
Mode : 16
Format settings, Endianness : Big
Codec ID : A_DTS
Duration : 44 min 3 s
Bit rate mode : Variable / Constant
Bit rate : 2 408 kb/s / 1 509 kb/s
Channel(s) : 6 channels
Channel positions : Front: L C R, Side: L R, LFE
Sampling rate : 48.0 kHz
Frame rate : 93.750 FPS (512 SPF)
Bit depth : 24 bits
Compression mode : Lossless / Lossy
Stream size : 759 MiB (8%)
Title : DTS-HD Master Audio / 5.1 / 48 kHz / 2408 kbps / 24-bit
Language : English
Default : Yes
Forced : No

Audio #2
ID : 3
Format : AC-3
Format/Info : Audio Coding 3
Format settings, Endianness : Big
Codec ID : A_AC3
Duration : 44 min 3 s
Bit rate mode : Constant
Bit rate : 224 kb/s
Channel(s) : 2 channels
Channel positions : Front: L R
Sampling rate : 48.0 kHz
Frame rate : 31.250 FPS (1536 SPF)
Bit depth : 16 bits
Compression mode : Lossy
Stream size : 70.6 MiB (1%)
Title : Commentary with Executive Producer David Fury and Actor Kakeem Kae-Kazim (Dolby Digital Audio / 2.0 / 48 kHz / 224 kbps)
Language : English
Service kind : Complete Main
Default : No
Forced : No

Text #1
ID : 4
Format : PGS
Codec ID : S_HDMV/PGS
Codec ID/Info : Picture based subtitle format used on BDs/HD-DVDs
Duration : 43 min 9 s
Bit rate : 98.2 kb/s
Count of elements : 1464
Stream size : 30.3 MiB (0%)
Title : SDH
Language : English
Default : No
Forced : No

Text #2
ID : 5
Format : PGS
Codec ID : S_HDMV/PGS
Codec ID/Info : Picture based subtitle format used on BDs/HD-DVDs
Duration : 43 min 0 s
Bit rate : 91.3 kb/s
Count of elements : 1374
Stream size : 28.1 MiB (0%)
Language : French
Default : No
Forced : No

Text #3
ID : 6
Format : PGS
Codec ID : S_HDMV/PGS
Codec ID/Info : Picture based subtitle format used on BDs/HD-DVDs
Duration : 43 min 0 s
Bit rate : 92.6 kb/s
Count of elements : 1380
Stream size : 28.5 MiB (0%)
Language : Spanish
Default : No
Forced : No

Menu
00:00:00.000 : en:Chapter 1
00:01:53.363 : en:Chapter 2
00:06:25.093 : en:Chapter 3
00:09:42.373 : en:Chapter 4
00:12:21.240 : en:Chapter 5
00:14:11.350 : en:Chapter 6
00:17:02.730 : en:Chapter 7
00:21:58.192 : en:Chapter 8
00:24:46.360 : en:Chapter 9
00:31:06.364 : en:Chapter 10
00:34:32.362 : en:Chapter 11
00:37:34.169 : en:Chapter 12





24 S07E09


24 S07E09


24 S07E09


24 S07E09


24 S07E09

All episodes