Tags
Language
Tags

24 S07E11

Posted By: Tavaz
1080p (FullHD) / BDRip IMDb
24 S07E11

24 S07E11
BluRay Remux | MKV | 1920x1080 | English | H264 @ 27932 kbps | DTS | 43 min 38 s | 9.74 GiB
Subtitles: Spanish, French, English
Genre: Drama

24 is an American television series produced for the Fox network and syndicated worldwide, starring Kiefer Sutherland as Counter Terrorist Unit agent Jack Bauer. Each 24-episode season covers 24 hours in the life of Bauer, using the real time method of narration.

90daa7d61ab34abf8a2fd10e1eea0ec2.mkv (9.7 GB)



General
Unique ID : 246703234706760013570867900169231576931 (0xB9995090D3DF1AD68517610C5254AF63)
Complete name : ./90daa7d61ab34abf8a2fd10e1eea0ec2.mkv
Format : Matroska
Format version : Version 4 / Version 2
File size : 9.74 GiB
Duration : 43 min 38 s
Overall bit rate mode : Variable
Overall bit rate : 32.0 Mb/s
Encoded date : UTC 2017-03-12 14:40:14
Writing application : mkvmerge v9.9.0 ('Pick Up') 64bit
Writing library : libebml v1.3.4 + libmatroska v1.4.5

Video
ID : 1
Format : AVC
Format/Info : Advanced Video Codec
Format profile : High@L4.1
Format settings : CABAC / 4 Ref Frames
Format settings, CABAC : Yes
Format settings, RefFrames : 4 frames
Codec ID : V_MPEG4/ISO/AVC
Duration : 43 min 38 s
Bit rate mode : Variable
Bit rate : 27.9 Mb/s
Maximum bit rate : 37.0 Mb/s
Width : 1 920 pixels
Height : 1 080 pixels
Display aspect ratio : 16:9
Frame rate mode : Constant
Frame rate : 23.976 (24000/1001) FPS
Color space : YUV
Chroma subsampling : 4:2:0
Bit depth : 8 bits
Scan type : Progressive
Bits/(Pixel*Frame) : 0.562
Stream size : 8.52 GiB (87%)
Title : MPEG-4 AVC Video / 27999 kbps / 1080p / 23.976 fps / 16:9 / High Profile 4.1
Default : Yes
Forced : No
Color range : Limited
Color primaries : BT.709
Transfer characteristics : BT.709
Matrix coefficients : BT.709

Audio
ID : 2
Format : DTS
Format/Info : Digital Theater Systems
Format profile : MA / Core
Mode : 16
Format settings, Endianness : Big
Codec ID : A_DTS
Duration : 43 min 38 s
Bit rate mode : Variable / Constant
Bit rate : 3 840 kb/s / 1 509 kb/s
Channel(s) : 6 channels
Channel positions : Front: L C R, Side: L R, LFE
Sampling rate : 48.0 kHz
Frame rate : 93.750 FPS (512 SPF)
Bit depth : 24 bits
Compression mode : Lossless / Lossy
Stream size : 1.15 GiB (12%)
Title : DTS-HD Master Audio / 5.1 / 48 kHz / 3774 kbps / 24-bit
Language : English
Default : Yes
Forced : No

Text #1
ID : 3
Format : PGS
Codec ID : S_HDMV/PGS
Codec ID/Info : Picture based subtitle format used on BDs/HD-DVDs
Duration : 42 min 44 s
Bit rate : 87.8 kb/s
Count of elements : 1270
Stream size : 26.8 MiB (0%)
Title : SDH
Language : English
Default : No
Forced : No

Text #2
ID : 4
Format : PGS
Codec ID : S_HDMV/PGS
Codec ID/Info : Picture based subtitle format used on BDs/HD-DVDs
Duration : 40 min 19 s
Bit rate : 85.0 kb/s
Count of elements : 1200
Stream size : 24.5 MiB (0%)
Language : French
Default : No
Forced : No

Text #3
ID : 5
Format : PGS
Codec ID : S_HDMV/PGS
Codec ID/Info : Picture based subtitle format used on BDs/HD-DVDs
Duration : 40 min 18 s
Bit rate : 88.6 kb/s
Count of elements : 1204
Stream size : 25.5 MiB (0%)
Language : Spanish
Default : No
Forced : No

Menu
00:00:00.000 : en:Chapter 1
00:03:21.910 : en:Chapter 2
00:06:26.636 : en:Chapter 3
00:09:51.716 : en:Chapter 4
00:12:53.523 : en:Chapter 5
00:15:09.951 : en:Chapter 6
00:18:46.959 : en:Chapter 7
00:20:09.333 : en:Chapter 8
00:23:57.394 : en:Chapter 9
00:29:58.672 : en:Chapter 10
00:32:32.159 : en:Chapter 11
00:37:18.736 : en:Chapter 12





24 S07E11


24 S07E11


24 S07E11


24 S07E11


24 S07E11

All episodes