Tags
Language
Tags

24 S07E12

Posted By: Tavaz
1080p (FullHD) / BDRip IMDb
24 S07E12

24 S07E12
BluRay Remux | MKV | 1920x1080 | English / English | H264 @ 27929 kbps | DTS | 43 min 53 s | 9.98 GiB
Subtitles: Spanish, French, English
Genre: Drama

24 is an American television series produced for the Fox network and syndicated worldwide, starring Kiefer Sutherland as Counter Terrorist Unit agent Jack Bauer. Each 24-episode season covers 24 hours in the life of Bauer, using the real time method of narration.

9129144cf0df467d86f0095fb1844cfe.mkv (10.0 GB)



General
Unique ID : 208743371653001027853072021359381977987 (0x9D0A82D1EFE9B40D2FC12150DA481B83)
Complete name : ./9129144cf0df467d86f0095fb1844cfe.mkv
Format : Matroska
Format version : Version 4 / Version 2
File size : 9.98 GiB
Duration : 43 min 53 s
Overall bit rate mode : Variable
Overall bit rate : 32.5 Mb/s
Encoded date : UTC 2017-03-12 14:43:45
Writing application : mkvmerge v9.9.0 ('Pick Up') 64bit
Writing library : libebml v1.3.4 + libmatroska v1.4.5

Video
ID : 1
Format : AVC
Format/Info : Advanced Video Codec
Format profile : High@L4.1
Format settings : CABAC / 4 Ref Frames
Format settings, CABAC : Yes
Format settings, RefFrames : 4 frames
Codec ID : V_MPEG4/ISO/AVC
Duration : 43 min 53 s
Bit rate mode : Variable
Bit rate : 27.9 Mb/s
Maximum bit rate : 37.0 Mb/s
Width : 1 920 pixels
Height : 1 080 pixels
Display aspect ratio : 16:9
Frame rate mode : Constant
Frame rate : 23.976 (24000/1001) FPS
Color space : YUV
Chroma subsampling : 4:2:0
Bit depth : 8 bits
Scan type : Progressive
Bits/(Pixel*Frame) : 0.562
Stream size : 8.56 GiB (86%)
Title : MPEG-4 AVC Video / 27990 kbps / 1080p / 23.976 fps / 16:9 / High Profile 4.1
Default : Yes
Forced : No
Color range : Limited
Color primaries : BT.709
Transfer characteristics : BT.709
Matrix coefficients : BT.709

Audio #1
ID : 2
Format : DTS
Format/Info : Digital Theater Systems
Format profile : MA / Core
Mode : 16
Format settings, Endianness : Big
Codec ID : A_DTS
Duration : 43 min 53 s
Bit rate mode : Variable / Constant
Bit rate : 4 176 kb/s / 1 509 kb/s
Channel(s) : 6 channels
Channel positions : Front: L C R, Side: L R, LFE
Sampling rate : 48.0 kHz
Frame rate : 93.750 FPS (512 SPF)
Bit depth : 24 bits
Compression mode : Lossless / Lossy
Stream size : 1.28 GiB (13%)
Title : DTS-HD Master Audio / 5.1 / 48 kHz / 4176 kbps / 24-bit
Language : English
Default : Yes
Forced : No

Audio #2
ID : 3
Format : AC-3
Format/Info : Audio Coding 3
Format settings, Endianness : Big
Codec ID : A_AC3
Duration : 43 min 53 s
Bit rate mode : Constant
Bit rate : 224 kb/s
Channel(s) : 2 channels
Channel positions : Front: L R
Sampling rate : 48.0 kHz
Frame rate : 31.250 FPS (1536 SPF)
Bit depth : 16 bits
Compression mode : Lossy
Stream size : 70.3 MiB (1%)
Title : Commentary with Co-Executive Producer/Director Brad Turner and Actor Tony Todd (Dolby Digital Audio / 2.0 / 48 kHz / 224 kbps)
Language : English
Service kind : Complete Main
Default : No
Forced : No

Text #1
ID : 4
Format : PGS
Codec ID : S_HDMV/PGS
Codec ID/Info : Picture based subtitle format used on BDs/HD-DVDs
Duration : 42 min 59 s
Bit rate : 77.7 kb/s
Count of elements : 1271
Stream size : 23.9 MiB (0%)
Title : SDH
Language : English
Default : No
Forced : No

Text #2
ID : 5
Format : PGS
Codec ID : S_HDMV/PGS
Codec ID/Info : Picture based subtitle format used on BDs/HD-DVDs
Duration : 42 min 46 s
Bit rate : 69.1 kb/s
Count of elements : 1098
Stream size : 21.1 MiB (0%)
Language : French
Default : No
Forced : No

Text #3
ID : 6
Format : PGS
Codec ID : S_HDMV/PGS
Codec ID/Info : Picture based subtitle format used on BDs/HD-DVDs
Duration : 42 min 46 s
Bit rate : 71.7 kb/s
Count of elements : 1098
Stream size : 21.9 MiB (0%)
Language : Spanish
Default : No
Forced : No

Menu
00:00:00.000 : en:Chapter 1
00:02:15.427 : en:Chapter 2
00:05:32.082 : en:Chapter 3
00:08:09.906 : en:Chapter 4
00:11:53.546 : en:Chapter 5
00:14:02.258 : en:Chapter 6
00:19:32.546 : en:Chapter 7
00:23:10.556 : en:Chapter 8
00:25:03.585 : en:Chapter 9
00:28:02.431 : en:Chapter 10
00:33:06.943 : en:Chapter 11
00:38:08.036 : en:Chapter 12





24 S07E12


24 S07E12


24 S07E12


24 S07E12


24 S07E12

All episodes