Tags
Language
Tags

24 S07E13

Posted By: Tavaz
1080p (FullHD) / BDRip IMDb
24 S07E13

24 S07E13
BluRay Remux | MKV | 1920x1080 | English / English | H264 @ 28924 kbps | DTS | 44 min 2 s | 10.3 GiB
Subtitles: Spanish, French, English
Genre: Drama

24 is an American television series produced for the Fox network and syndicated worldwide, starring Kiefer Sutherland as Counter Terrorist Unit agent Jack Bauer. Each 24-episode season covers 24 hours in the life of Bauer, using the real time method of narration.

a5cb7b1008bc4cf4811fff4bc8e9e643.mkv (10.3 GB)



General
Unique ID : 275716604570481472830332468822318711407 (0xCF6D16244143C64AD7BA4EDC236B026F)
Complete name : ./a5cb7b1008bc4cf4811fff4bc8e9e643.mkv
Format : Matroska
Format version : Version 4 / Version 2
File size : 10.3 GiB
Duration : 44 min 2 s
Overall bit rate mode : Variable
Overall bit rate : 33.6 Mb/s
Encoded date : UTC 2017-03-12 14:47:16
Writing application : mkvmerge v9.9.0 ('Pick Up') 64bit
Writing library : libebml v1.3.4 + libmatroska v1.4.5

Video
ID : 1
Format : AVC
Format/Info : Advanced Video Codec
Format profile : High@L4.1
Format settings : CABAC / 4 Ref Frames
Format settings, CABAC : Yes
Format settings, RefFrames : 4 frames
Codec ID : V_MPEG4/ISO/AVC
Duration : 44 min 2 s
Bit rate mode : Variable
Bit rate : 28.9 Mb/s
Maximum bit rate : 37.0 Mb/s
Width : 1 920 pixels
Height : 1 080 pixels
Display aspect ratio : 16:9
Frame rate mode : Constant
Frame rate : 23.976 (24000/1001) FPS
Color space : YUV
Chroma subsampling : 4:2:0
Bit depth : 8 bits
Scan type : Progressive
Bits/(Pixel*Frame) : 0.582
Stream size : 8.90 GiB (86%)
Title : MPEG-4 AVC Video / 28999 kbps / 1080p / 23.976 fps / 16:9 / High Profile 4.1
Default : Yes
Forced : No
Color range : Limited
Color primaries : BT.709
Transfer characteristics : BT.709
Matrix coefficients : BT.709

Audio #1
ID : 2
Format : DTS
Format/Info : Digital Theater Systems
Format profile : MA / Core
Mode : 16
Format settings, Endianness : Big
Codec ID : A_DTS
Duration : 44 min 2 s
Bit rate mode : Variable / Constant
Bit rate : 4 203 kb/s / 1 509 kb/s
Channel(s) : 6 channels
Channel positions : Front: L C R, Side: L R, LFE
Sampling rate : 48.0 kHz
Frame rate : 93.750 FPS (512 SPF)
Bit depth : 24 bits
Compression mode : Lossless / Lossy
Stream size : 1.29 GiB (13%)
Title : DTS-HD Master Audio / 5.1 / 48 kHz / 4203 kbps / 24-bit
Language : English
Default : Yes
Forced : No

Audio #2
ID : 3
Format : AC-3
Format/Info : Audio Coding 3
Format settings, Endianness : Big
Codec ID : A_AC3
Duration : 44 min 2 s
Bit rate mode : Constant
Bit rate : 224 kb/s
Channel(s) : 2 channels
Channel positions : Front: L R
Sampling rate : 48.0 kHz
Frame rate : 31.250 FPS (1536 SPF)
Bit depth : 16 bits
Compression mode : Lossy
Stream size : 70.6 MiB (1%)
Title : Commentary with Co-Executive Producer/Director Brad Turner, Composer Sean Callery, and Actor James Morrison (Dolby Digital Audio / 2.0 / 48 kHz / 224 kbps)
Language : English
Service kind : Complete Main
Default : No
Forced : No

Text #1
ID : 4
Format : PGS
Codec ID : S_HDMV/PGS
Codec ID/Info : Picture based subtitle format used on BDs/HD-DVDs
Duration : 43 min 45 s
Bit rate : 79.8 kb/s
Count of elements : 1236
Stream size : 25.0 MiB (0%)
Title : SDH
Language : English
Default : No
Forced : No

Text #2
ID : 5
Format : PGS
Codec ID : S_HDMV/PGS
Codec ID/Info : Picture based subtitle format used on BDs/HD-DVDs
Duration : 42 min 51 s
Bit rate : 75.7 kb/s
Count of elements : 1176
Stream size : 23.2 MiB (0%)
Language : French
Default : No
Forced : No

Text #3
ID : 6
Format : PGS
Codec ID : S_HDMV/PGS
Codec ID/Info : Picture based subtitle format used on BDs/HD-DVDs
Duration : 42 min 51 s
Bit rate : 76.3 kb/s
Count of elements : 1178
Stream size : 23.4 MiB (0%)
Language : Spanish
Default : No
Forced : No

Menu
00:00:00.000 : en:Chapter 1
00:02:16.094 : en:Chapter 2
00:06:38.690 : en:Chapter 3
00:11:57.967 : en:Chapter 4
00:14:32.205 : en:Chapter 5
00:19:48.270 : en:Chapter 6
00:21:48.891 : en:Chapter 7
00:24:45.359 : en:Chapter 8
00:27:35.279 : en:Chapter 9
00:33:16.620 : en:Chapter 10
00:36:42.784 : en:Chapter 11
00:41:57.306 : en:Chapter 12





24 S07E13


24 S07E13


24 S07E13


24 S07E13


24 S07E13

All episodes