Tags
Language
Tags

24 S07E20

Posted By: Tavaz
1080p (FullHD) / BDRip IMDb
24 S07E20

24 S07E20
BluRay Remux | MKV | 1920x1080 | English | H264 @ 28920 kbps | DTS | 43 min 53 s | 10.0 GiB
Subtitles: Spanish, French, English
Genre: Drama

24 is an American television series produced for the Fox network and syndicated worldwide, starring Kiefer Sutherland as Counter Terrorist Unit agent Jack Bauer. Each 24-episode season covers 24 hours in the life of Bauer, using the real time method of narration.

8ef513868d2a47cbbb8669caff52d35e.mkv (10.0 GB)



General
Unique ID : 265985974120642704574959561013043558757 (0xC81B0905226AFFBFC642BD61D6FE7965)
Complete name : ./8ef513868d2a47cbbb8669caff52d35e.mkv
Format : Matroska
Format version : Version 4 / Version 2
File size : 10.0 GiB
Duration : 43 min 53 s
Overall bit rate mode : Variable
Overall bit rate : 32.7 Mb/s
Encoded date : UTC 2017-03-12 15:12:31
Writing application : mkvmerge v9.9.0 ('Pick Up') 64bit
Writing library : libebml v1.3.4 + libmatroska v1.4.5

Video
ID : 1
Format : AVC
Format/Info : Advanced Video Codec
Format profile : High@L4.1
Format settings : CABAC / 4 Ref Frames
Format settings, CABAC : Yes
Format settings, RefFrames : 4 frames
Codec ID : V_MPEG4/ISO/AVC
Duration : 43 min 53 s
Bit rate mode : Variable
Bit rate : 28.9 Mb/s
Maximum bit rate : 37.0 Mb/s
Width : 1 920 pixels
Height : 1 080 pixels
Display aspect ratio : 16:9
Frame rate mode : Constant
Frame rate : 23.976 (24000/1001) FPS
Color space : YUV
Chroma subsampling : 4:2:0
Bit depth : 8 bits
Scan type : Progressive
Bits/(Pixel*Frame) : 0.582
Stream size : 8.87 GiB (88%)
Title : MPEG-4 AVC Video / 28991 kbps / 1080p / 23.976 fps / 16:9 / High Profile 4.1
Default : Yes
Forced : No
Color range : Limited
Color primaries : BT.709
Transfer characteristics : BT.709
Matrix coefficients : BT.709

Audio
ID : 2
Format : DTS
Format/Info : Digital Theater Systems
Format profile : MA / Core
Mode : 16
Format settings, Endianness : Big
Codec ID : A_DTS
Duration : 43 min 53 s
Bit rate mode : Variable / Constant
Bit rate : 3 525 kb/s / 1 509 kb/s
Channel(s) : 6 channels
Channel positions : Front: L C R, Side: L R, LFE
Sampling rate : 48.0 kHz
Frame rate : 93.750 FPS (512 SPF)
Bit depth : 24 bits
Compression mode : Lossless / Lossy
Stream size : 1.08 GiB (11%)
Title : DTS-HD Master Audio / 5.1 / 48 kHz / 3525 kbps / 24-bit
Language : English
Default : Yes
Forced : No

Text #1
ID : 3
Format : PGS
Codec ID : S_HDMV/PGS
Codec ID/Info : Picture based subtitle format used on BDs/HD-DVDs
Duration : 43 min 36 s
Bit rate : 90.5 kb/s
Count of elements : 1400
Stream size : 28.2 MiB (0%)
Title : SDH
Language : English
Default : No
Forced : No

Text #2
ID : 4
Format : PGS
Codec ID : S_HDMV/PGS
Codec ID/Info : Picture based subtitle format used on BDs/HD-DVDs
Duration : 42 min 52 s
Bit rate : 84.7 kb/s
Count of elements : 1320
Stream size : 26.0 MiB (0%)
Language : French
Default : No
Forced : No

Text #3
ID : 5
Format : PGS
Codec ID : S_HDMV/PGS
Codec ID/Info : Picture based subtitle format used on BDs/HD-DVDs
Duration : 42 min 52 s
Bit rate : 79.9 kb/s
Count of elements : 1320
Stream size : 24.5 MiB (0%)
Language : Spanish
Default : No
Forced : No

Menu
00:00:00.000 : en:Chapter 1
00:02:04.916 : en:Chapter 2
00:04:54.085 : en:Chapter 3
00:09:45.376 : en:Chapter 4
00:12:05.767 : en:Chapter 5
00:14:55.061 : en:Chapter 6
00:18:20.474 : en:Chapter 7
00:25:43.000 : en:Chapter 8
00:28:57.653 : en:Chapter 9
00:33:15.785 : en:Chapter 10
00:35:36.634 : en:Chapter 11
00:40:05.445 : en:Chapter 12





24 S07E20


24 S07E20


24 S07E20


24 S07E20


24 S07E20

All episodes