Tags
Language
Tags

24 S07E23

Posted By: Tavaz
1080p (FullHD) / BDRip IMDb
24 S07E23

24 S07E23
BluRay Remux | MKV | 1920x1080 | English / English | H264 @ 24939 kbps | DTS | 43 min 34 s | 8.89 GiB
Subtitles: Spanish, French, English
Genre: Drama

24 is an American television series produced for the Fox network and syndicated worldwide, starring Kiefer Sutherland as Counter Terrorist Unit agent Jack Bauer. Each 24-episode season covers 24 hours in the life of Bauer, using the real time method of narration.

d1ffc2ae89ab422db4db785cb1039381.mkv (8.9 GB)



General
Unique ID : 123525775253338992303652806432717389891 (0x5CEE32EE26D09331617B87A94E91C043)
Complete name : ./d1ffc2ae89ab422db4db785cb1039381.mkv
Format : Matroska
Format version : Version 4 / Version 2
File size : 8.89 GiB
Duration : 43 min 34 s
Overall bit rate mode : Variable
Overall bit rate : 29.2 Mb/s
Encoded date : UTC 2017-03-12 15:22:27
Writing application : mkvmerge v9.9.0 ('Pick Up') 64bit
Writing library : libebml v1.3.4 + libmatroska v1.4.5

Video
ID : 1
Format : AVC
Format/Info : Advanced Video Codec
Format profile : High@L4.1
Format settings : CABAC / 4 Ref Frames
Format settings, CABAC : Yes
Format settings, RefFrames : 4 frames
Codec ID : V_MPEG4/ISO/AVC
Duration : 43 min 34 s
Bit rate mode : Variable
Bit rate : 24.9 Mb/s
Maximum bit rate : 37.0 Mb/s
Width : 1 920 pixels
Height : 1 080 pixels
Display aspect ratio : 16:9
Frame rate mode : Constant
Frame rate : 23.976 (24000/1001) FPS
Color space : YUV
Chroma subsampling : 4:2:0
Bit depth : 8 bits
Scan type : Progressive
Bits/(Pixel*Frame) : 0.502
Stream size : 7.59 GiB (85%)
Title : MPEG-4 AVC Video / 24994 kbps / 1080p / 23.976 fps / 16:9 / High Profile 4.1
Default : Yes
Forced : No
Color range : Limited
Color primaries : BT.709
Transfer characteristics : BT.709
Matrix coefficients : BT.709

Audio #1
ID : 2
Format : DTS
Format/Info : Digital Theater Systems
Format profile : MA / Core
Mode : 16
Format settings, Endianness : Big
Codec ID : A_DTS
Duration : 43 min 34 s
Bit rate mode : Variable / Constant
Bit rate : 3 840 kb/s / 1 509 kb/s
Channel(s) : 6 channels
Channel positions : Front: L C R, Side: L R, LFE
Sampling rate : 48.0 kHz
Frame rate : 93.750 FPS (512 SPF)
Bit depth : 24 bits
Compression mode : Lossless / Lossy
Stream size : 1.17 GiB (13%)
Title : DTS-HD Master Audio / 5.1 / 48 kHz / 3850 kbps / 24-bit
Language : English
Default : Yes
Forced : No

Audio #2
ID : 3
Format : AC-3
Format/Info : Audio Coding 3
Format settings, Endianness : Big
Codec ID : A_AC3
Duration : 43 min 34 s
Bit rate mode : Constant
Bit rate : 224 kb/s
Channel(s) : 2 channels
Channel positions : Front: L R
Sampling rate : 48.0 kHz
Frame rate : 31.250 FPS (1536 SPF)
Bit depth : 16 bits
Compression mode : Lossy
Stream size : 69.8 MiB (1%)
Title : Commentary with Executive Producer David Fury, Co-Executive Producer Alex Gansa, and Actor Glenn Morshower (Dolby Digital Audio / 2.0 / 48 kHz / 224 kbps)
Language : English
Service kind : Complete Main
Default : No
Forced : No

Text #1
ID : 4
Format : PGS
Codec ID : S_HDMV/PGS
Codec ID/Info : Picture based subtitle format used on BDs/HD-DVDs
Duration : 43 min 17 s
Bit rate : 74.2 kb/s
Count of elements : 1146
Stream size : 23.0 MiB (0%)
Title : SDH
Language : English
Default : No
Forced : No

Text #2
ID : 5
Format : PGS
Codec ID : S_HDMV/PGS
Codec ID/Info : Picture based subtitle format used on BDs/HD-DVDs
Duration : 42 min 32 s
Bit rate : 66.0 kb/s
Count of elements : 1002
Stream size : 20.1 MiB (0%)
Language : French
Default : No
Forced : No

Text #3
ID : 6
Format : PGS
Codec ID : S_HDMV/PGS
Codec ID/Info : Picture based subtitle format used on BDs/HD-DVDs
Duration : 42 min 32 s
Bit rate : 62.6 kb/s
Count of elements : 1004
Stream size : 19.0 MiB (0%)
Language : Spanish
Default : No
Forced : No

Menu
00:00:00.000 : en:Chapter 1
00:01:34.761 : en:Chapter 2
00:04:18.300 : en:Chapter 3
00:07:03.548 : en:Chapter 4
00:12:01.179 : en:Chapter 5
00:14:23.821 : en:Chapter 6
00:18:19.181 : en:Chapter 7
00:24:12.409 : en:Chapter 8
00:28:30.334 : en:Chapter 9
00:31:50.367 : en:Chapter 10
00:36:49.582 : en:Chapter 11
00:41:06.756 : en:Chapter 12





24 S07E23


24 S07E23


24 S07E23


24 S07E23


24 S07E23

All episodes